Достать ножи: Стеклянная луковица

MVO

Добыча

Дубляж

Уэнсдэй

1 сезон

Тор

Дубляж

13 клиническая

1 сезон

Жестокая ночь

MVO

Одни из нас

1 сезон

Deluxe

pack

Рекомендуем

30

Пиратка

ВАЖНО

ВАЖНО

Ghostwire

Пиратка

jed

RePack

nioh2

RePack

RDR2

RePack

NEED FOR SPEED™ PAYBACK

RePack

скачать торрент

Кинопоиск HD

Острые козырьки 6 сезон

6 сезон

FAR CRY 6

RePack

скачать торрент

Лицензия

скачать торрент

MVO

1

1 сезон

скачать торрент

1 сезон

скачать торрент

Лицензия

  

Человек – швейцарский нож / Swiss Army Man (Дэн Кван, Дэниэл Шайнерт) [2016, Мюзикл, фэнтези, драма, мелодрама, комедия, приключения, BDRip 1080p] Дубляж [Лицензия]

Человек – швейцарский нож через торрент pb.wtf

Размер: 9.4 GB | Добавлен: 4 года 7 мес. назад | Торрент скачан:58 раз
Смотреть онлайн | Скачать | Поддержите нас   

28-06-2018 01:02 Человек – швейцарский нож Скачать торрент  

Человек – швейцарский нож / Swiss Army Man
Год выпуска: 2016
Страна: США
Жанр: Мюзикл, фэнтези, драма, мелодрама, комедия, приключения
Продолжительность: 01:37:23
Перевод: Дублированный | Лицензия
Субтитры: Русские, английские

Режиссер: Дэн Кван, Дэниэл Шайнерт

rating

В ролях:


Пол Дано (Hank), Дэниэл Рэдклифф (Manny), Мэри Элизабет Уинстэд (Sarah), Антония Риберо (Crissie), Тимоти Йолих (Preston), Ричард Гросс (Hanks Dad), Марика Кастил (Reporter), Энди Халл (Cameraman), Аарон Маршалл (Officer #1), Шейн Каррут (Coroner), Джессика Харбек (Lady Cop)

Описание:

Отчаявшийся главный герой в одиночестве блуждает в лесах, где натыкается на мертвое тело и заводит с ним дружбу. Вдвоем они отправляются в сюрреалистическое путешествие домой.

Качество: BDRip 1080p
Формат: MKV

Видео: 1920x800, 12.7 Mbit/s, 23.976 fps
Аудио#1: 48 kHz, AC3, 5.1, 448 Kbps | Дублированный, Лицензия |
Аудио#2: 48 kHz, AC3, 5.1, 640 kbps | Оригинал |
скриншот   скриншот   скриншот   скриншот   скриншот  

General
Unique ID : 171635643202481137552483724697425602120 (0x811FD28DD6A13F7A99145AB90B62E648)
Complete name : D:Video111Swiss.Army.Man.2016.D.DRip.1080p.ExKinoRay.mkv
Format : Matroska
Format version : Version 4 / Version 2
File size : 9.40 GiB
Duration : 1 h 37 min
Overall bit rate : 13.8 Mb/s
Movie name : Swiss Army Man 2016
Encoded date : UTC 2018-06-28 00:01:42
Writing application : mkvmerge v7.3.0 ('Nouages') 64bit built on Oct 22 2014 18:53:34
Writing library : libebml v1.3.0 + libmatroska v1.4.1

Video
ID : 1
Format : AVC
Format/Info : Advanced Video Codec
Format profile : [email protected]
Format settings : CABAC / 5 Ref Frames
Format settings, CABAC : Yes
Format settings, ReFrames : 5 frames
Codec ID : V_MPEG4/ISO/AVC
Duration : 1 h 37 min
Bit rate : 12.7 Mb/s
Width : 1 920 pixels
Height : 800 pixels
Display aspect ratio : 2.40:1
Frame rate mode : Constant
Frame rate : 23.976 (24000/1001) FPS
Color space : YUV
Chroma subsampling : 4:2:0
Bit depth : 8 bits
Scan type : Progressive
Bits/(Pixel*Frame) : 0.346
Stream size : 8.66 GiB (92%)
Writing library : x264 core 146 r2538 121396c
Encoding settings : cabac=1 / ref=5 / deblock=1:-3:-3 / analyse=0x3:0x133 / me=umh / subme=11 / psy=1 / psy_rd=1.05:0.05 / mixed_ref=1 / me_range=32 / chroma_me=1 / trellis=2 / 8x8dct=1 / cqm=0 / deadzone=21,11 / fast_pskip=0 / chroma_qp_offset=-3 / threads=6 / lookahead_threads=1 / sliced_threads=0 / nr=0 / decimate=0 / interlaced=0 / bluray_compat=0 / constrained_intra=0 / bframes=8 / b_pyramid=2 / b_adapt=2 / b_bias=0 / direct=3 / weightb=1 / open_gop=0 / weightp=2 / keyint=240 / keyint_min=23 / scenecut=40 / intra_refresh=0 / rc_lookahead=60 / rc=2pass / mbtree=1 / bitrate=12731 / ratetol=1.0 / qcomp=0.60 / qpmin=0 / qpmax=69 / qpstep=4 / cplxblur=20.0 / qblur=0.5 / vbv_maxrate=50000 / vbv_bufsize=62500 / nal_hrd=none / filler=0 / ip_ratio=1.40 / aq=1:0.80
Language : English
Default : Yes
Forced : No

Audio #1
ID : 2
Format : AC-3
Format/Info : Audio Coding 3
Codec ID : A_AC3
Duration : 1 h 37 min
Bit rate mode : Constant
Bit rate : 448 kb/s
Channel(s) : 6 channels
Channel positions : Front: L C R, Side: L R, LFE
Sampling rate : 48.0 kHz
Frame rate : 31.250 FPS (1536 SPF)
Bit depth : 16 bits
Compression mode : Lossy
Stream size : 312 MiB (3%)
Title : Дубляж [License]
Language : Russian
Service kind : Complete Main
Default : Yes
Forced : Yes

Audio #2
ID : 3
Format : AC-3
Format/Info : Audio Coding 3
Codec ID : A_AC3
Duration : 1 h 37 min
Bit rate mode : Constant
Bit rate : 640 kb/s
Channel(s) : 6 channels
Channel positions : Front: L C R, Side: L R, LFE
Sampling rate : 48.0 kHz
Frame rate : 31.250 FPS (1536 SPF)
Bit depth : 16 bits
Compression mode : Lossy
Stream size : 446 MiB (5%)
Title : Original
Language : English
Service kind : Complete Main
Default : No
Forced : No

Text #1
ID : 4
Format : UTF-8
Codec ID : S_TEXT/UTF8
Codec ID/Info : UTF-8 Plain Text
Duration : 1 h 29 min
Bit rate : 81 b/s
Count of elements : 1035
Stream size : 53.6 KiB (0%)
Title : Full
Language : Russian
Default : No
Forced : No

Text #2
ID : 5
Format : UTF-8
Codec ID : S_TEXT/UTF8
Codec ID/Info : UTF-8 Plain Text
Duration : 1 h 33 min
Bit rate : 50 b/s
Count of elements : 1130
Stream size : 34.4 KiB (0%)
Title : Full
Language : English
Default : No
Forced : No

Menu
00:00:00.000 : en:00:00:00.000
00:08:47.902 : en:00:08:47.902
00:13:14.335 : en:00:13:14.335
00:17:42.228 : en:00:17:42.228
00:25:11.593 : en:00:25:11.593
00:32:46.256 : en:00:32:46.256
00:37:17.068 : en:00:37:17.068
00:44:39.260 : en:00:44:39.260
00:51:44.101 : en:00:51:44.101
00:57:57.224 : en:00:57:57.224
01:03:19.337 : en:01:03:19.337
01:06:17.140 : en:01:06:17.140
01:10:05.535 : en:01:10:05.535
01:16:40.679 : en:01:16:40.679
01:22:10.092 : en:01:22:10.092
01:27:31.788 : en:01:27:31.788




Скачать Человек – швейцарский нож через торрент https://pic1.kartinco.top/images/11/dgygb.jpg Скачать, смотреть онлайн Человек – швейцарский нож бесплантно в хорошем качестве Описание: Отчаявшийся главный герой в одиночестве блуждает в лесах, где натыкается на мертвое тело и заводит с ним дружбу. Вдвоем они ... 10 10 2
Торрент: Зарегистрирован [2018-06-28 01:02] · скачан: 58 раз
Статус: √ проверено
Размер: 9.4 GB
Как cкачать? Как скачать Человек – швейцарский нож через торрент | UTorrent

% Раздел Тема Автор DL S | L
Фильмы 2016 [DVDrip, WEB-DLRip, HDrip] (DUB, MVO) [ 1.46 GB ] Человек – швейцарский нож / Swiss Army Man | Лицензия | BDRip Twi7ter Скачать
1 | 0
Фильмы [HD 720p, 1080p] (Хороший звук DUB, MVO) [ 11.01 GB ] Человек - швейцарский нож / Swiss Army Man | DUB | 1080p msltel Скачать
1 | 0
Фильмы [HD 720p, 1080p] (Хороший звук DUB, MVO) [ 4.37 GB ] Человек - швейцарский нож / Swiss Army Man | DUB | 720p msltel Скачать
1 | 0
Фильмы 2016 [DVDrip, WEB-DLRip, HDrip] (DUB, MVO) [ 1.46 GB ] Человек – швейцарский нож / Swiss Army Man | Лицензия R5 | BDRip bober100 Скачать
1 | 0
Фильмы (Blu-ray, BD-Remux, HDDVD) [ 27.26 GB ] Человек – швейцарский нож / Swiss Army Man | Лицензия | BD Remux 1080p bober100 Скачать
1 | 0
Фильмы 2016 [DVDrip, WEB-DLRip, HDrip] (DUB, MVO) [ 746 MB ] Человек – швейцарский нож / Swiss Army Man | Лицензия R5 | HDRip bober100 Скачать
1 | 0
Фильмы без перевода [ 27.14 GB ] Человек – швейцарский нож / Swiss Army Man | | BD Remux smaster Скачать
1 | 0

28-11-2019 20:33  


Отключить вcю реклaмy на сайте, в т.ч. и в плеере онлайн просмотра!

    Дорогой пользователь! Огромная просьба, поблагодарите релизера, оцените раздачу и оставьте свои комментарий, если Вы скачали Человек – швейцарский нож через торрент бесплатно!!
    Комментировать посты могут только пользователи прошедшие не сложную регистрацию
    Показать сообщения:    


    Человек – швейцарский нож через торрент
    Скачать бесплатно Человек – швейцарский нож
    Человек – швейцарский нож скачать торрент
    Человек – швейцарский нож смотреть онлайн
    Cкачать фильм Человек – швейцарский нож бесплатно
    Человек – швейцарский нож скачать торрент в хорошем качестве
    Человек – швейцарский нож смотреть онлайн бесплатно в хорошем качестве
    Вы не можете начинать темы
    Вы не можете отвечать на сообщения
    Вы не можете редактировать свои сообщения
    Вы не можете удалять свои сообщения
    Вы не можете голосовать в опросах
    Вы не можете прикреплять файлы к сообщениям
    Вы можете скачивать файлы
    Человек – швейцарский нож / Swiss Army Man [2016, Мюзикл, фэнтези, драма, мелодрама, комедия, приключения, BDRip 1080p] Дубляж [Лицензия] смотреть онлайн, скачать торрент picoco.icu