Ссылка на приватное зеркало нашего сайта всего за 1$. Внимание количество ограничено!!!

2 сезон

iTunes

1 сезон

1

2 сезон

2 сезон

iTunes

1 сезон

RePack

30

Ultimate

ВАЖНО

ИГРА 18+

pack

RePack

MK11
pack

Забери бонус

RePack

jed

!!Акция!!

Alien_Rage

RePack

fifa19

RePack

Assassins Creed: Odyssey

RePack

NEED FOR SPEED™ PAYBACK

4 сезон

9 сезон

Бесстыжие 9 сезон

Все сериалы

все сериалы на PB.wtf

RePack

FAR CRY 5
  

Человек – швейцарский нож / Swiss Army Man (Дэн Кван, Дэниэл Шайнерт) [2016, Мюзикл, фэнтези, драма, мелодрама, комедия, приключения, BD Remux 1080p] DUB [Лицензия] pb.wtf

Человек – швейцарский нож через торрент pb.wtf

Размер: 27.26 GB | Добавлен: 2 года 5 мес. назад | Торрент скачан:7 раз
Скачать  

28-06-2018 05:02 Человек – швейцарский нож Скачать торрент  

Человек – швейцарский нож / Swiss Army Man
Год выпуска: 2016
Страна: США
Жанр: Мюзикл, фэнтези, драма, мелодрама, комедия, приключения
Продолжительность: 01:37:23
Перевод: Дублированный | Лицензия
Субтитры: Русские, английские

Режиссер: Дэн Кван, Дэниэл Шайнерт

rating

В ролях:


Пол Дано (Hank), Дэниэл Рэдклифф (Manny), Мэри Элизабет Уинстэд (Sarah), Антония Риберо (Crissie), Тимоти Йолих (Preston), Ричард Гросс (Hanks Dad), Марика Кастил (Reporter), Энди Халл (Cameraman), Аарон Маршалл (Officer #1), Шейн Каррут (Coroner), Джессика Харбек (Lady Cop)

Описание:

Отчаявшийся главный герой в одиночестве блуждает в лесах, где натыкается на мертвое тело и заводит с ним дружбу. Вдвоем они отправляются в сюрреалистическое путешествие домой.

Качество: BD Remux 1080p
Формат: MKV

Видео: 1920x1080, 34.2 Mbit/s, 23.976 fps
Аудио#1: 48 kHz, AC3, 5.1, 448 Kbps | Дублированный, Лицензия |
Аудио#2: 48 kHz, TrueHD, 7.1, 4685 kbps | Оригинал |
Аудио#3: 48 kHz, AC3, 5.1, 640 kbps | Оригинал |
скриншот   скриншот   скриншот   скриншот   скриншот  

General
Unique ID : 136808286173292140279851409690496084722 (0x66EC51478EF1B2F566E1029359D42AF2)
Complete name : D:Video111Swiss.Army.Man.2016.D.DREMUX.1080p.ExKinoRay.mkv
Format : Matroska
Format version : Version 4 / Version 2
File size : 27.3 GiB
Duration : 1 h 37 min
Overall bit rate mode : Variable
Overall bit rate : 40.1 Mb/s
Movie name : Swiss Army Man 2016 from ExKinoRay
Encoded date : UTC 2018-06-28 01:20:45
Writing application : mkvmerge v23.0.0 ('The Bride Said No') 64-bit
Writing library : libebml v1.3.6 + libmatroska v1.4.9

Video
ID : 1
Format : AVC
Format/Info : Advanced Video Codec
Format profile : High@L4.1
Format settings : CABAC / 4 Ref Frames
Format settings, CABAC : Yes
Format settings, ReFrames : 4 frames
Codec ID : V_MPEG4/ISO/AVC
Duration : 1 h 37 min
Bit rate mode : Variable
Bit rate : 34.2 Mb/s
Maximum bit rate : 36.5 Mb/s
Width : 1 920 pixels
Height : 1 080 pixels
Display aspect ratio : 16:9
Frame rate mode : Constant
Frame rate : 23.976 (24000/1001) FPS
Color space : YUV
Chroma subsampling : 4:2:0
Bit depth : 8 bits
Scan type : Progressive
Bits/(Pixel*Frame) : 0.688
Stream size : 23.3 GiB (85%)
Language : English
Default : Yes
Forced : No

Audio #1
ID : 2
Format : AC-3
Format/Info : Audio Coding 3
Codec ID : A_AC3
Duration : 1 h 37 min
Bit rate mode : Constant
Bit rate : 448 kb/s
Channel(s) : 6 channels
Channel positions : Front: L C R, Side: L R, LFE
Sampling rate : 48.0 kHz
Frame rate : 31.250 FPS (1536 SPF)
Bit depth : 16 bits
Compression mode : Lossy
Stream size : 312 MiB (1%)
Title : Dub [License]
Language : Russian
Service kind : Complete Main
Default : Yes
Forced : Yes

Audio #2
ID : 3
Format : TrueHD
Format profile : TrueHD+Atmos / TrueHD
Codec ID : A_TRUEHD
Duration : 1 h 37 min
Bit rate mode : Variable
Bit rate : 4 685 kb/s
Maximum bit rate : 8 526 kb/s
Channel(s) : Object Based / 8 channels
Channel positions : Object Based / Front: L C R, Side: L R, Back: L R, LFE
Sampling rate : / 48.0 kHz
Frame rate : 1 200.000 FPS (40 SPF)
Compression mode : Lossless
Stream size : 3.19 GiB (12%)
Title : Original
Language : English
Default : No
Forced : No

Audio #3
ID : 4
Format : AC-3
Format/Info : Audio Coding 3
Codec ID : A_AC3
Duration : 1 h 37 min
Bit rate mode : Constant
Bit rate : 640 kb/s
Channel(s) : 6 channels
Channel positions : Front: L C R, Side: L R, LFE
Sampling rate : 48.0 kHz
Frame rate : 31.250 FPS (1536 SPF)
Bit depth : 16 bits
Compression mode : Lossy
Stream size : 446 MiB (2%)
Title : Original
Language : English
Service kind : Complete Main
Default : No
Forced : No

Text #1
ID : 5
Format : UTF-8
Codec ID : S_TEXT/UTF8
Codec ID/Info : UTF-8 Plain Text
Duration : 1 h 29 min
Bit rate : 81 b/s
Count of elements : 1035
Stream size : 53.6 KiB (0%)
Title : Full
Language : Russian
Default : No
Forced : No

Text #2
ID : 6
Format : UTF-8
Codec ID : S_TEXT/UTF8
Codec ID/Info : UTF-8 Plain Text
Duration : 1 h 33 min
Bit rate : 50 b/s
Count of elements : 1130
Stream size : 34.4 KiB (0%)
Title : Full
Language : English
Default : No
Forced : No

Menu
00:00:00.000 : en:00:00:00.000
00:08:47.902 : en:00:08:47.902
00:13:14.335 : en:00:13:14.335
00:17:42.228 : en:00:17:42.228
00:25:11.593 : en:00:25:11.593
00:32:46.256 : en:00:32:46.256
00:37:17.068 : en:00:37:17.068
00:44:39.260 : en:00:44:39.260
00:51:44.101 : en:00:51:44.101
00:57:57.224 : en:00:57:57.224
01:03:19.337 : en:01:03:19.337
01:06:17.140 : en:01:06:17.140
01:10:05.535 : en:01:10:05.535
01:16:40.679 : en:01:16:40.679
01:22:10.092 : en:01:22:10.092
01:27:31.788 : en:01:27:31.788

pb.wtf



Скачать Человек – швейцарский нож через торрент http://pic1.kartinco.top/images/11/dgygb.jpg Скачать фильм Человек – швейцарский нож через торрент бесплантно в хорошем качестве Описание: Отчаявшийся главный герой в одиночестве блуждает в лесах, где натыкается на мертвое тело и заводит с ним дружбу. Вдвоем они ... 10 10 3
Info! Золотая раздача, скачанное не засчитывается.
Торрент: Зарегистрирован [2018-06-28 05:02] · скачан: 7 раз
Статус: √ проверено
Размер: 27.26 GB
Как cкачать? Как скачать Человек – швейцарский нож через торрент | qTorrent

% Раздел Тема Автор DL S | L
Фильмы 2016 [DVDrip, WEB-DLRip, HDrip] (DUB, MVO) [ 1.46 GB ] Человек – швейцарский нож / Swiss Army Man [2016 мюзикл BDRip] - [] Twi7ter Скачать
1 | 0
Фильмы [HD 720p, 1080p] (Хороший звук DUB, MVO) [ 11.01 GB ] Человек - швейцарский нож / Swiss Army Man [2016 BDRip 1080p by msltel] DUB 2 x AVO msltel Скачать
1 | 0
Фильмы [HD 720p, 1080p] (Хороший звук DUB, MVO) [ 4.37 GB ] Человек - швейцарский нож / Swiss Army Man [2016 BDRip 720p by msltel] DUB 2 x AVO msltel Скачать
1 | 0
Фильмы 2016 [DVDrip, WEB-DLRip, HDrip] (DUB, MVO) [ 1.46 GB ] Человек – швейцарский нож / Swiss Army Man [2016 Мюзикл BDRip] DUB [ R5] bober100 Скачать
1 | 0
Фильмы [HD 720p, 1080p] (Хороший звук DUB, MVO) [ 9.4 GB ] Человек – швейцарский нож / Swiss Army Man [2016 Мюзикл BDRip 1080p] DUB [] bober100 Скачать
1 | 0
Фильмы 2016 [DVDrip, WEB-DLRip, HDrip] (DUB, MVO) [ 746 MB ] Человек – швейцарский нож / Swiss Army Man [2016 Мюзикл HDRip] DUB [ R5] bober100 Скачать
1 | 0
Фильмы без перевода [ 27.14 GB ] Человек – швейцарский нож / Swiss Army Man [2016 BD Remux] [Оригинал] smaster Скачать
1 | 0

28-11-2019 20:33  

Отключить всю рекламу на сайте

    Дорогой пользователь! Огромная просьба, поблагодарите релизера, оцените раздачу и оставьте свои комментарий, если Вы скачали Человек – швейцарский нож через торрент бесплатно! Внесите свою лепту в развитие PiratBit!
    Комментировать посты могут только пользователи прошедшие не сложную регистрацию
    Показать сообщения:    

    Человек – швейцарский нож через торрент
    Скачать бесплатно Человек – швейцарский нож
    Человек – швейцарский нож скачать торрент
    Человек – швейцарский нож смотреть онлайн
    Cкачать фильм Человек – швейцарский нож бесплатно
    Человек – швейцарский нож скачать торрент в хорошем качестве
    Человек – швейцарский нож смотреть онлайн бесплатно в хорошем качестве


    Вы не можете начинать темы
    Вы не можете отвечать на сообщения
    Вы не можете редактировать свои сообщения
    Вы не можете удалять свои сообщения
    Вы не можете голосовать в опросах
    Вы не можете прикреплять файлы к сообщениям
    Вы можете скачивать файлы