Ссылка на приватное зеркало нашего сайта всего за 1$. Внимание количество ограничено!!!

2 сезон

iTunes

1 сезон

1

iTunes

iTunes

iTunes

1 сезон

RePack

30

ИГРА 18+

pack

ВАЖНО

!!Акция!!

Alien_RageХит недели

RePack

MK11
pack

Забери бонус

RePack

jed

!!Акция!!

Alien_Rage

RePack

fifa19

RePack

Assassins Creed: Odyssey

RePack

NEED FOR SPEED™ PAYBACK

4 сезон

9 сезон

Бесстыжие 9 сезон

Все сериалы

все сериалы на PB.wtf

RePack

FAR CRY 5
  

Фокус / Focus (Гленн Фикарра, Джон Рекуа) [2014, драма, мелодрама, комедия, криминал, UHD WEBRip 2160p] DUB + AVO [Гаврилов] pb.wtf

Фокус через торрент pb.wtf

Размер: 23.07 GB | Добавлен: 2 года 3 мес. назад | Торрент скачан:36 раз
Скачать  

28-06-2018 05:15 Фокус Скачать торрент  

Фокус / Focus«Узнай в чём фокус»
Год выпуска: 2014
Страна: США, Аргентина
Жанр: драма, мелодрама, комедия, криминал
Продолжительность: 01:44:44
Перевод: Дублированный, авторский
Субтитры: Русские (Forced, Full), английские, французские
Режиссер: Гленн Фикарра , Джон Рекуа
В ролях:

Уилл Смит (Nicky), Марго Робби (Jess), Адриан Мартинес (Farhad), Джералд МакРэйни (Owens), Родриго Санторо (Garriga), Б.Д. Вонг (Liyuan), Бреннан Браун (Horst), Роберт Тейлор (McEwen), Дотан Бонен (Gordon), Грифф Ферст (Gareth), Стефани Онор (Janice), Дэвид Стэнфорд (Drunken Stranger)
Описание:
История об опытном мошеннике, который влюбляется в девушку, делающую первые шаги на поприще нелегального отъема средств у граждан. Отношения становятся для них проблемой, когда обнаруживается, что романтика мешает их нечестному бизнесу.
Рейтинг:

MPAA: R - Лицам до 17 лет обязательно присутствие взрослого
Качество: UHD WEBRip 2160p
Формат: MKV
Видео: HEVC, HDR, 25.7 Mбит/с, 3840x2160, 23.976 Кадр/с
Аудио #1: Русский / AC3, 48000 Hz, 5.1, 640 kb/s [Дублированый]
Аудио #2: Русский / AC3, 48000 Hz, 2/0 (L,R) ch, 160 kb/s [Гаврилов]
Аудио #3: Английский / DTS-HD MA, 7.1, 48 kHz, 4523 kbps, 24-bit
Аудио #4: Французский / AC3, 48000 Hz, 5.1, 448 kb/s
- Марго Робби отдыхала со своим братом на острове в Хорватии, когда ей позвонили и предложили пройти прослушивание на роль Джесс. Она прибыла в отель к 6 утра. Ее рейс был в тот же день. За 20 минут она собрала все вещи, села на катамаран до главного острова, а затем на автобусе добралась до аэропорта. Прождав 6 часов в аэропорту она, наконец, вылетела во Францию, где ей пришлось прождать еще 6 часов до вылета в Нью-Йорк. Прибыв в Нью-Йорк, она обнаружила, что ее багаж пропал. В итоге она без косметики, в джинсовых шортах и рубашке, все же успела на прослушивание. Уилл Смит на это прослушивание опоздал. Когда он вошел, то сказал, что ехал из Куинса, на что Робби сказала, что она только что прилетела с острова, расположенного в Хорватии, но при этом все равно пришла вовремя. По словам Робби, как ей показалось, в итоге это помогло ей получить роль.
- На роль Джесс рассматривались Эмма Стоун, Мишель Уильямс, Джессика Бил, Роуз Бирн, Оливия Манн и Кристен Стюарт, но, в конечном счете, роль досталась Марго Робби.
- После того как Райан Гослинг покинул проект, главную роль предлагали Брэду Питту, но он отказался, и Бену Аффлеку, который в итоге также покинул проект из-за несогласованности расписаний съемок.
- Роль Фархада предлагали Арти Лэнгу и Омиду Джалили, но оба актера отказались.
Complete name : D:\Готовые-4К\Focus.2015.2160p.HDR.WEBRip.DTS-HD.MA.7.1.EN.FR.x265-SpaceHD13.mkv
Format : Matroska
Format version : Version 4 / Version 2
File size : 23.1 GiB
Duration : 1 h 44 min
Overall bit rate : 31.5 Mb/s
Movie name : Focus.2015.2160p.HDR.WEBRip.DTS-HD.MA.7.1.EN.FR.x265-SpaceHD13
Encoded date : UTC 2018-06-27 13:46:49
Writing application : mkvmerge v24.0.0 ('Beyond The Pale') 64-bit
Writing library : libebml v1.3.6 + libmatroska v1.4.9

Video
ID : 1
Format : HEVC
Format/Info : High Efficiency Video Coding
Commercial name : HDR10
Format profile : Main 10@L5@Main
Codec ID : V_MPEGH/ISO/HEVC
Duration : 1 h 44 min
Bit rate : 25.7 Mb/s
Width : 3 840 pixels
Height : 2 160 pixels
Display aspect ratio : 16:9
Frame rate mode : Constant
Frame rate : 23.976 (24000/1001) FPS
Color space : YUV
Chroma subsampling : 4:2:0
Bit depth : 10 bits
Bits/(Pixel*Frame) : 0.129
Stream size : 18.8 GiB (82%)
Title : Focus.2015.2160p.HDR.WEBRip.DTS-HD.MA.7.1.EN.FR.x265-SpaceHD13
Writing library : x265 2.8+19-bcdc610cf5f0:[Windows][MSVC 1914][64 bit] 10bit
Encoding settings : cpuid=1111039 / frame-threads=3 / numa-pools=8 / wpp / no-pmode / no-pme / no-psnr / no-ssim / log-level=2 / input-csp=1 / input-res=3840x2160 / interlace=0 / total-frames=150587 / level-idc=0 / high-tier=1 / uhd-bd=0 / ref=3 / no-allow-non-conformance / repeat-headers / annexb / no-aud / no-hrd / info / hash=0 / no-temporal-layers / open-gop / min-keyint=23 / keyint=250 / gop-lookahead=0 / bframes=4 / b-adapt=2 / b-pyramid / bframe-bias=0 / rc-lookahead=20 / lookahead-slices=8 / scenecut=40 / radl=0 / no-intra-refresh / ctu=64 / min-cu-size=8 / no-rect / no-amp / max-tu-size=32 / tu-inter-depth=1 / tu-intra-depth=1 / limit-tu=0 / rdoq-level=0 / dynamic-rd=0.00 / no-ssim-rd / signhide / no-tskip / nr-intra=0 / nr-inter=0 / no-constrained-intra / strong-intra-smoothing / max-merge=2 / limit-refs=3 / no-limit-modes / me=1 / subme=2 / merange=57 / temporal-mvp / weightp / no-weightb / no-analyze-src-pics / deblock=0:0 / sao / no-sao-non-deblock / rd=3 / no-early-skip / rskip / no-fast-intra / no-tskip-fast / no-cu-lossless / no-b-intra / no-splitrd-skip / rdpenalty=0 / psy-rd=2.00 / psy-rdoq=0.00 / no-rd-refine / no-lossless / cbqpoffs=0 / crqpoffs=0 / rc=crf / crf=12.0 / qcomp=0.60 / qpstep=4 / stats-write=0 / stats-read=0 / ipratio=1.40 / pbratio=1.30 / aq-mode=1 / aq-strength=1.00 / cutree / zone-count=0 / no-strict-cbr / qg-size=32 / no-rc-grain / qpmax=69 / qpmin=0 / no-const-vbv / sar=0 / overscan=0 / videoformat=5 / range=0 / colorprim=9 / transfer=16 / colormatrix=9 / chromaloc=0 / display-window=0 / master-display=G(13250,34500)B(7500,3000)R(34000,16000)WP(15635,16450)L(39990000,50) / max-cll=4000,1000 / min-luma=0 / max-luma=1023 / log2-max-poc-lsb=8 / vui-timing-info / vui-hrd-info / slices=1 / no-opt-qp-pps / no-opt-ref-list-length-pps / no-multi-pass-opt-rps / scenecut-bias=0.05 / no-opt-cu-delta-qp / no-aq-motion / hdr / hdr-opt / no-dhdr10-opt / no-idr-recovery-sei / analysis-reuse-level=5 / scale-factor=0 / refine-intra=0 / refine-inter=0 / refine-mv=0 / no-limit-sao / ctu-info=0 / no-lowpass-dct / refine-mv-type=0 / copy-pic=1 / max-ausize-factor=1.0 / no-dynamic-refine / no-single-sei
Default : Yes
Forced : No
Color range : Limited
Color primaries : BT.2020
Transfer characteristics : PQ
Matrix coefficients : BT.2020 non-constant
Mastering display color pri : Display P3
Mastering display luminance : min: 0.0050 cd/m2, max: 3999 cd/m2
Maximum Content Light Level : 4000 cd/m2
Maximum Frame-Average Light : 1000 cd/m2

Audio #1
ID : 2
Format : DTS
Format/Info : Digital Theater Systems
Format profile : MA / Core
Codec ID : A_DTS
Duration : 1 h 44 min
Bit rate mode : Variable / Constant
Bit rate : 4 523 kb/s / 1 509 kb/s
Channel(s) : 8 channels / 6 channels
Channel positions : Front: L C R, Side: L R, Back: L R, LFE / Front: L C R, Side: L R, LFE
Sampling rate : 48.0 kHz
Frame rate : 93.750 FPS (512 SPF)
Bit depth : 24 bits
Compression mode : Lossless / Lossy
Delay relative to video : 3 ms
Stream size : 3.31 GiB (14%)
Title : Focus.2015.2160p.HDR.WEBRip.DTS-HD.MA.7.1.EN.FR.x265-SpaceHD13
Language : English
Default : No
Forced : No

Audio #2
ID : 3
Format : AC-3
Format/Info : Audio Coding 3
Codec ID : A_AC3
Duration : 1 h 44 min
Bit rate mode : Constant
Bit rate : 640 kb/s
Channel(s) : 6 channels
Channel positions : Front: L C R, Side: L R, LFE
Sampling rate : 48.0 kHz
Frame rate : 31.250 FPS (1536 SPF)
Bit depth : 16 bits
Compression mode : Lossy
Delay relative to video : 28 ms
Stream size : 479 MiB (2%)
Title : Focus.2015.2160p.HDR.WEBRip.DTS-HD.MA.7.1.EN.FR.x265-SpaceHD13
Language : Russian
Service kind : Complete Main
Default : Yes
Forced : Yes

Audio #3
ID : 4
Format : AC-3
Format/Info : Audio Coding 3
Codec ID : A_AC3
Duration : 1 h 44 min
Bit rate mode : Constant
Bit rate : 160 kb/s
Channel(s) : 2 channels
Channel positions : Front: L R
Sampling rate : 48.0 kHz
Frame rate : 31.250 FPS (1536 SPF)
Bit depth : 16 bits
Compression mode : Lossy
Delay relative to video : 28 ms
Stream size : 120 MiB (1%)
Title : Focus.2015.2160p.HDR.WEBRip.DTS-HD.MA.7.1.EN.FR.x265-SpaceHD13[Андрей Гаврилов]
Language : Russian
Service kind : Complete Main
Default : No
Forced : No

Audio #4
ID : 5
Format : AC-3
Format/Info : Audio Coding 3
Codec ID : A_AC3
Duration : 1 h 44 min
Bit rate mode : Constant
Bit rate : 448 kb/s
Channel(s) : 6 channels
Channel positions : Front: L C R, Side: L R, LFE
Sampling rate : 48.0 kHz
Frame rate : 31.250 FPS (1536 SPF)
Bit depth : 16 bits
Compression mode : Lossy
Delay relative to video : 27 ms
Stream size : 335 MiB (1%)
Title : Focus.2015.2160p.HDR.WEBRip.DTS-HD.MA.7.1.EN.FR.x265-SpaceHD13.VFQ
Language : French
Service kind : Complete Main
Default : No
Forced : No

Text #1
ID : 6
Format : UTF-8
Codec ID : S_TEXT/UTF8
Codec ID/Info : UTF-8 Plain Text
Duration : 1 h 37 min
Bit rate : 66 b/s
Count of elements : 1480
Stream size : 47.8 KiB (0%)
Language : English
Default : No
Forced : No

Text #2
ID : 7
Format : PGS
Muxing mode : zlib
Codec ID : S_HDMV/PGS
Codec ID/Info : Picture based subtitle format used on BDs/HD-DVDs
Duration : 5 s 89 ms
Bit rate : 14.4 kb/s
Count of elements : 2
Stream size : 8.92 KiB (0%)
Title : форс
Language : Russian
Default : No
Forced : No

Text #3
ID : 8
Format : PGS
Muxing mode : zlib
Codec ID : S_HDMV/PGS
Codec ID/Info : Picture based subtitle format used on BDs/HD-DVDs
Duration : 1 h 38 min
Bit rate : 59.7 kb/s
Count of elements : 3020
Stream size : 42.2 MiB (0%)
Language : Russian
Default : Yes
Forced : No

Text #4
ID : 9
Format : PGS
Muxing mode : zlib
Codec ID : S_HDMV/PGS
Codec ID/Info : Picture based subtitle format used on BDs/HD-DVDs
Duration : 1 h 43 min
Bit rate : 38.6 kb/s
Count of elements : 3182
Stream size : 28.6 MiB (0%)
Title : English (SDH)
Language : English
Default : No
Forced : No

Text #5
ID : 10
Format : UTF-8
Codec ID : S_TEXT/UTF8
Codec ID/Info : UTF-8 Plain Text
Duration : 1 h 38 min
Bit rate : 51 b/s
Count of elements : 1355
Stream size : 37.6 KiB (0%)
Language : French
Default : No
Forced : No
pb.wtf



Скачать Фокус через торрент https://a.radikal.ru/a08/1806/f1/cdc9f1f15400.png Скачать фильм Фокус через торрент бесплантно в хорошем качестве Описание: История об опытном мошеннике, который влюбляется в девушку, делающую первые шаги на поприще нелегального отъема средств у ... 10 10 3
Info! Золотая раздача, скачанное не засчитывается.
Торрент: Зарегистрирован [2018-06-28 05:15] · скачан: 36 раз
Статус: √ проверено
Размер: 23.07 GB
Как cкачать? Как скачать Фокус через торрент | qTorrent

% Раздел Тема Автор DL S | L
Фильмы [HD 720p, 1080p] (Хороший звук DUB, MVO) [ 5.75 GB ] Фокус / Focus [2015 BDRip 720p от _denis_100 / NNNB] DUB AVO + Original Eng +Sub 2xRus 3xEng _denis_100 Скачать
2 | 0
Фильмы [HD 720p, 1080p] (Хороший звук DUB, MVO) [ 5.03 GB ] Фокус / Focus [2014 BDRip 1080p HEVC ] Мичман37 Скачать
1 | 0
Порно фильмы HD [ 3.65 GB ] Фокусировка на Сиськи / Rack Focus [2016 Gonzo Anal WEB-DL 720p Оригинальный] DJASFUL Скачать
1 | 0
Гонзо [ 1.89 GB ] Фокусировка на Сиськи / Rack Focus [2016 All Sex Anal Oral Gonzo BigTits Porn Stars WEB-DLRip 480p] Split Scenes sheker187 Скачать
2 | 0

28-11-2019 20:33  

Отключить всю рекламу на сайте

    Дорогой пользователь! Огромная просьба, поблагодарите релизера, оцените раздачу и оставьте свои комментарий, если Вы скачали Фокус через торрент бесплатно! Внесите свою лепту в развитие PiratBit!
    Комментировать посты могут только пользователи прошедшие не сложную регистрацию
    Показать сообщения:    

    Фокус через торрент
    Скачать бесплатно Фокус
    Фокус скачать торрент
    Фокус смотреть онлайн
    Cкачать фильм Фокус бесплатно
    Фокус скачать торрент в хорошем качестве
    Фокус смотреть онлайн бесплатно в хорошем качестве


    Вы не можете начинать темы
    Вы не можете отвечать на сообщения
    Вы не можете редактировать свои сообщения
    Вы не можете удалять свои сообщения
    Вы не можете голосовать в опросах
    Вы не можете прикреплять файлы к сообщениям
    Вы можете скачивать файлы