Ссылка на приватное зеркало нашего сайта всего за 1$. Внимание количество ограничено!!!

2 сезон

iTunes

1 сезон

1

2 сезон

2 сезон

iTunes

1 сезон

RePack

30

Ultimate

ВАЖНО

ИГРА 18+

pack

RePack

MK11
pack

Забери бонус

RePack

jed

!!Акция!!

Alien_Rage

RePack

fifa19

RePack

Assassins Creed: Odyssey

RePack

NEED FOR SPEED™ PAYBACK

4 сезон

9 сезон

Бесстыжие 9 сезон

Все сериалы

все сериалы на PB.wtf

RePack

FAR CRY 5
  

Страна призраков / Incident in a Ghost Land (Паскаль Ложье) [2018, Ужасы, Blu-Ray 1080p] Дубляж [Лицензия] pb.wtf

Страна призраков через торрент pb.wtf

Размер: 18.14 GB | Добавлен: 2 года 5 мес. назад | Торрент скачан:30 раз
Скачать  

28-06-2018 06:18 Страна призраков Скачать торрент  

Страна призраков / Incident in a Ghost Land

Год выпуска: 2018
Страна: Франция, Канада
Жанр: ужасы
Продолжительность: 01:31:13
Перевод: Дублированный | Лицензия
Субтитры: Русские
Режиссер: Паскаль Ложье
В ролях:
Кристал Рид, Анастасия Филлипс, Эмилия Джонс, Тейлор Хиксон, Милен Фармер, Роб Арчер, Анджела Эшер, Эрик Атхавале, Тони Брэга, Паоло Брайант
Описание:
Бэт возвращается в родные места, где много лет назад с её семьёй произошла страшная трагедия. В старом особняке её ждут мать и сестра, помешанная на призраках, чья одержимость злыми духами - не что иное, как отголосок ужасного инцидента, превратившего жизнь в параноидальный кошмар. В доме начинают происходить странные события, объяснить которые Бэт не в силах...
Рейтинг:

Качество: Blu-Ray 1080p
Контейнер: BDMV
Видео: MPEG-4 AVC, 18394 Кбит/с, 1920x1080, 24 кадр/с
Аудио: Русский DTS-HD MA, 6 ch, 3514 Кбит/с
Аудио: Aнглийский DTS-HD MA, 6 ch, 3484 Кбит/с
Disc Title: INCIDENT_IN_A_GHOST_LAND_RUS_BLUEBIRD
Disc Size: 19 482 078 708 bytes
Protection: AACS
BD-Java: Yes
BDInfo: 0.5.8

Notes:

BDINFO HOME:
Cinema Squid
http://www.cinemasquid.com/blu-ray/tools/bdinfo

INCLUDES FORUMS REPORT FOR:
AVS Forum Blu-ray Audio and Video Specifications Thread
http://www.avsforum.com/avs-vb/showthread.php?t=1155731

********************
PLAYLIST: 00003.MPLS
********************

<--- BEGIN FORUMS PASTE --->

Total Video
Title Codec Length Movie Size Disc Size Bitrate Bitrate Main Audio Track Secondary Audio Track
----- ------ ------- -------------- -------------- ------- ------- ------------------ ---------------------
00003.MPLS AVC 1:31:13 18 522 193 920 19 482 078 708 27,07 18,39 DTS-HD Master 5.1 3514Kbps (48kHz/24-bit)

DISC INFO:

Disc Title: INCIDENT_IN_A_GHOST_LAND_RUS_BLUEBIRD
Disc Size: 19 482 078 708 bytes
Protection: AACS
BD-Java: Yes
BDInfo: 0.5.8

PLAYLIST REPORT:

Name: 00003.MPLS
Length: 1:31:13.666 (h:m:s.ms)
Size: 18 522 193 920 bytes
Total Bitrate: 27,07 Mbps

VIDEO:

Codec Bitrate Description
----- ------- -----------
MPEG-4 AVC Video 18394 kbps 1080p / 24 fps / 16:9 / High Profile 4.0

AUDIO:

Codec Language Bitrate Description
----- -------- ------- -----------
DTS-HD Master Audio Russian 3514 kbps 5.1 / 48 kHz / 3514 kbps / 24-bit (DTS Core: 5.1 / 48 kHz / 1509 kbps / 24-bit)
DTS-HD Master Audio English 3483 kbps 5.1 / 48 kHz / 3483 kbps / 24-bit (DTS Core: 5.1 / 48 kHz / 1509 kbps / 24-bit)

SUBTITLES:

Codec Language Bitrate Description
----- -------- ------- -----------
Presentation Graphics Russian 5,231 kbps

FILES:

Name Time In Length Size Total Bitrate
---- ------- ------ ---- -------------
00003.M2TS 0:00:00.000 1:31:13.666 18 522 193 920 27 071

CHAPTERS:

Number Time In Length Avg Video Rate Max 1-Sec Rate Max 1-Sec Time Max 5-Sec Rate Max 5-Sec Time Max 10Sec Rate Max 10Sec Time Avg Frame Size Max Frame Size Max Frame Time
------ ------- ------ -------------- -------------- -------------- -------------- -------------- -------------- -------------- -------------- -------------- --------------
1 0:00:00.000 1:31:13.666 18 394 kbps 36 287 kbps 00:18:50.916 25 192 kbps 01:14:58.208 23 274 kbps 00:22:04.458 95 801 bytes 426 414 bytes 00:35:47.458

STREAM DIAGNOSTICS:

File PID Type Codec Language Seconds Bitrate Bytes Packets
---- --- ---- ----- -------- -------------- -------------- ------------- -----
00003.M2TS 4113 (0x1011) 0x1B AVC 5473,583 18 394 12 585 221 012 68 475 167
00003.M2TS 4352 (0x1100) 0x86 DTS-HD MA rus (Russian) 5473,583 3 514 2 404 309 208 13 920 990
00003.M2TS 4353 (0x1101) 0x86 DTS-HD MA eng (English) 5473,583 3 483 2 383 229 544 13 806 011
00003.M2TS 4608 (0x1200) 0x90 PGS rus (Russian) 5473,583 5 3 579 100 24 360

<---- END FORUMS PASTE ---->

QUICK SUMMARY:

Disc Title: INCIDENT_IN_A_GHOST_LAND_RUS_BLUEBIRD
Disc Size: 19 482 078 708 bytes
Protection: AACS
BD-Java: Yes
Playlist: 00003.MPLS
Size: 18 522 193 920 bytes
Length: 1:31:13.666
Total Bitrate: 27,07 Mbps
Video: MPEG-4 AVC Video / 18394 kbps / 1080p / 24 fps / 16:9 / High Profile 4.0
Audio: Russian / DTS-HD Master Audio / 5.1 / 48 kHz / 3514 kbps / 24-bit (DTS Core: 5.1 / 48 kHz / 1509 kbps / 24-bit)
Audio: English / DTS-HD Master Audio / 5.1 / 48 kHz / 3483 kbps / 24-bit (DTS Core: 5.1 / 48 kHz / 1509 kbps / 24-bit)
Subtitle: Russian / 5,231 kbps

********************
PLAYLIST: 01003.MPLS
********************

<--- BEGIN FORUMS PASTE --->

Total Video
Title Codec Length Movie Size Disc Size Bitrate Bitrate Main Audio Track Secondary Audio Track
----- ------ ------- -------------- -------------- ------- ------- ------------------ ---------------------
01003.MPLS AVC 1:31:13 18 522 193 920 19 482 078 708 27,07 18,39 DTS-HD Master 5.1 3514Kbps (48kHz/24-bit)

DISC INFO:

Disc Title: INCIDENT_IN_A_GHOST_LAND_RUS_BLUEBIRD
Disc Size: 19 482 078 708 bytes
Protection: AACS
BD-Java: Yes
BDInfo: 0.5.8

PLAYLIST REPORT:

Name: 01003.MPLS
Length: 1:31:13.666 (h:m:s.ms)
Size: 18 522 193 920 bytes
Total Bitrate: 27,07 Mbps

VIDEO:

Codec Bitrate Description
----- ------- -----------
MPEG-4 AVC Video 18394 kbps 1080p / 24 fps / 16:9 / High Profile 4.0

AUDIO:

Codec Language Bitrate Description
----- -------- ------- -----------
DTS-HD Master Audio Russian 3514 kbps 5.1 / 48 kHz / 3514 kbps / 24-bit (DTS Core: 5.1 / 48 kHz / 1509 kbps / 24-bit)
DTS-HD Master Audio English 3483 kbps 5.1 / 48 kHz / 3483 kbps / 24-bit (DTS Core: 5.1 / 48 kHz / 1509 kbps / 24-bit)

SUBTITLES:

Codec Language Bitrate Description
----- -------- ------- -----------
Presentation Graphics Russian 5,231 kbps

FILES:

Name Time In Length Size Total Bitrate
---- ------- ------ ---- -------------
00003.M2TS 0:00:00.000 1:31:13.666 18 522 193 920 27 071

CHAPTERS:

Number Time In Length Avg Video Rate Max 1-Sec Rate Max 1-Sec Time Max 5-Sec Rate Max 5-Sec Time Max 10Sec Rate Max 10Sec Time Avg Frame Size Max Frame Size Max Frame Time
------ ------- ------ -------------- -------------- -------------- -------------- -------------- -------------- -------------- -------------- -------------- --------------
1 0:00:00.000 0:01:29.791 5 110 kbps 23 231 kbps 00:01:25.374 19 362 kbps 00:01:24.791 15 932 kbps 00:00:37.625 26 605 bytes 334 407 bytes 00:00:40.916
2 0:01:29.791 0:09:27.958 18 932 kbps 29 435 kbps 00:09:06.958 24 795 kbps 00:08:31.458 22 667 kbps 00:08:30.375 98 605 bytes 322 691 bytes 00:08:35.333
3 0:10:57.750 0:08:51.083 19 573 kbps 36 287 kbps 00:18:50.916 23 978 kbps 00:11:15.000 23 132 kbps 00:18:42.583 101 941 bytes 328 500 bytes 00:18:51.833
4 0:19:48.833 0:09:40.083 19 984 kbps 33 338 kbps 00:22:13.249 24 897 kbps 00:22:09.625 23 274 kbps 00:22:04.458 104 084 bytes 401 937 bytes 00:24:25.458
5 0:29:28.916 0:11:31.791 18 700 kbps 28 815 kbps 00:34:32.500 23 611 kbps 00:33:49.458 22 757 kbps 00:29:33.749 97 398 bytes 426 414 bytes 00:35:47.458
6 0:41:00.708 0:10:49.166 20 135 kbps 31 309 kbps 00:50:05.625 23 900 kbps 00:50:11.250 22 249 kbps 00:45:59.833 104 870 bytes 258 816 bytes 00:49:45.416
7 0:51:49.875 0:12:00.458 19 451 kbps 35 007 kbps 01:02:18.583 25 061 kbps 00:55:17.583 22 734 kbps 01:01:23.500 101 305 bytes 326 621 bytes 00:57:53.041
8 1:03:50.333 0:12:20.499 19 929 kbps 35 526 kbps 01:14:12.791 25 192 kbps 01:14:58.208 23 154 kbps 01:06:25.916 103 795 bytes 418 698 bytes 01:13:42.250
9 1:16:10.833 0:15:02.833 14 072 kbps 32 098 kbps 01:19:16.791 24 840 kbps 01:21:55.125 22 596 kbps 01:23:36.333 73 296 bytes 397 507 bytes 01:24:50.750

STREAM DIAGNOSTICS:

File PID Type Codec Language Seconds Bitrate Bytes Packets
---- --- ---- ----- -------- -------------- -------------- ------------- -----
00003.M2TS 4113 (0x1011) 0x1B AVC 5473,583 18 394 12 585 221 012 68 475 167
00003.M2TS 4352 (0x1100) 0x86 DTS-HD MA rus (Russian) 5473,583 3 514 2 404 309 208 13 920 990
00003.M2TS 4353 (0x1101) 0x86 DTS-HD MA eng (English) 5473,583 3 483 2 383 229 544 13 806 011
00003.M2TS 4608 (0x1200) 0x90 PGS rus (Russian) 5473,583 5 3 579 100 24 360

<---- END FORUMS PASTE ---->

QUICK SUMMARY:

Disc Title: INCIDENT_IN_A_GHOST_LAND_RUS_BLUEBIRD
Disc Size: 19 482 078 708 bytes
Protection: AACS
BD-Java: Yes
Playlist: 01003.MPLS
Size: 18 522 193 920 bytes
Length: 1:31:13.666
Total Bitrate: 27,07 Mbps
Video: MPEG-4 AVC Video / 18394 kbps / 1080p / 24 fps / 16:9 / High Profile 4.0
Audio: Russian / DTS-HD Master Audio / 5.1 / 48 kHz / 3514 kbps / 24-bit (DTS Core: 5.1 / 48 kHz / 1509 kbps / 24-bit)
Audio: English / DTS-HD Master Audio / 5.1 / 48 kHz / 3483 kbps / 24-bit (DTS Core: 5.1 / 48 kHz / 1509 kbps / 24-bit)
Subtitle: Russian / 5,231 kbps

********************
PLAYLIST: 01011.MPLS
********************

<--- BEGIN FORUMS PASTE --->

Total Video
Title Codec Length Movie Size Disc Size Bitrate Bitrate Main Audio Track Secondary Audio Track
----- ------ ------- -------------- -------------- ------- ------- ------------------ ---------------------
01011.MPLS MPEG-2 0:09:15 861 173 760 19 482 078 708 12,39 11,56 DD AC3 2.0 192Kbps

DISC INFO:

Disc Title: INCIDENT_IN_A_GHOST_LAND_RUS_BLUEBIRD
Disc Size: 19 482 078 708 bytes
Protection: AACS
BD-Java: Yes
BDInfo: 0.5.8

PLAYLIST REPORT:

Name: 01011.MPLS
Length: 0:09:15.958 (h:m:s.ms)
Size: 861 173 760 bytes
Total Bitrate: 12,39 Mbps

VIDEO:

Codec Bitrate Description
----- ------- -----------
MPEG-2 Video 11559 kbps 1080p / 24 fps / 16:9

AUDIO:

Codec Language Bitrate Description
----- -------- ------- -----------
Dolby Digital Audio Russian 192 kbps 2.0 / 48 kHz / 192 kbps

FILES:

Name Time In Length Size Total Bitrate
---- ------- ------ ---- -------------
00004.M2TS 0:00:00.000 0:02:22.791 215 144 448 12 054
00005.M2TS 0:02:22.791 0:01:59.625 183 822 336 12 293
00006.M2TS 0:04:22.416 0:02:29.375 232 071 168 12 429
00007.M2TS 0:06:51.791 0:02:24.166 230 135 808 12 771

CHAPTERS:

Number Time In Length Avg Video Rate Max 1-Sec Rate Max 1-Sec Time Max 5-Sec Rate Max 5-Sec Time Max 10Sec Rate Max 10Sec Time Avg Frame Size Max Frame Size Max Frame Time
------ ------- ------ -------------- -------------- -------------- -------------- -------------- -------------- -------------- -------------- -------------- --------------
1 0:00:00.000 0:02:22.791 11 238 kbps 25 548 kbps 00:02:16.375 18 767 kbps 00:00:55.375 17 848 kbps 00:00:55.375 58 513 bytes 722 296 bytes 00:02:16.416
2 0:02:22.791 0:01:59.625 11 464 kbps 21 100 kbps 00:04:17.958 16 420 kbps 00:04:03.375 14 972 kbps 00:03:55.875 59 710 bytes 617 227 bytes 00:04:18.000
3 0:04:22.416 0:02:29.375 11 595 kbps 21 150 kbps 00:04:55.458 14 230 kbps 00:06:42.708 13 277 kbps 00:05:21.375 60 389 bytes 469 197 bytes 00:05:23.708
4 0:06:51.791 0:02:24.166 11 920 kbps 18 531 kbps 00:07:45.375 13 840 kbps 00:08:44.125 13 597 kbps 00:07:36.541 62 100 bytes 544 535 bytes 00:09:05.125

STREAM DIAGNOSTICS:

File PID Type Codec Language Seconds Bitrate Bytes Packets
---- --- ---- ----- -------- -------------- -------------- ------------- -----
00004.M2TS 4113 (0x1011) 0x02 MPEG-2 142,625 11 249 200 540 724 1 091 864
00004.M2TS 4352 (0x1100) 0x81 AC3 rus (Russian) 142,625 192 3 426 816 22 310
00005.M2TS 4113 (0x1011) 0x02 MPEG-2 119,542 11 472 171 426 478 933 359
00005.M2TS 4352 (0x1100) 0x81 AC3 rus (Russian) 119,542 192 2 871 552 18 695
00006.M2TS 4113 (0x1011) 0x02 MPEG-2 149,250 11 604 216 495 837 1 178 692
00006.M2TS 4352 (0x1100) 0x81 AC3 rus (Russian) 149,250 192 3 585 024 23 340
00007.M2TS 4113 (0x1011) 0x02 MPEG-2 144,083 11 929 214 846 004 1 169 646
00007.M2TS 4352 (0x1100) 0x81 AC3 rus (Russian) 144,083 192 3 460 559 22 529

<---- END FORUMS PASTE ---->

QUICK SUMMARY:

Disc Title: INCIDENT_IN_A_GHOST_LAND_RUS_BLUEBIRD
Disc Size: 19 482 078 708 bytes
Protection: AACS
BD-Java: Yes
Playlist: 01011.MPLS
Size: 861 173 760 bytes
Length: 0:09:15.958
Total Bitrate: 12,39 Mbps
Video: MPEG-2 Video / 11559 kbps / 1080p / 24 fps / 16:9
Audio: Russian / Dolby Digital Audio / 2.0 / 48 kHz / 192 kbps

********************
PLAYLIST: 00006.MPLS
********************

<--- BEGIN FORUMS PASTE --->

Total Video
Title Codec Length Movie Size Disc Size Bitrate Bitrate Main Audio Track Secondary Audio Track
----- ------ ------- -------------- -------------- ------- ------- ------------------ ---------------------
00006.MPLS MPEG-2 0:02:29 232 071 168 19 482 078 708 12,43 11,59 DD AC3 2.0 192Kbps

DISC INFO:

Disc Title: INCIDENT_IN_A_GHOST_LAND_RUS_BLUEBIRD
Disc Size: 19 482 078 708 bytes
Protection: AACS
BD-Java: Yes
BDInfo: 0.5.8

PLAYLIST REPORT:

Name: 00006.MPLS
Length: 0:02:29.375 (h:m:s.ms)
Size: 232 071 168 bytes
Total Bitrate: 12,43 Mbps

VIDEO:

Codec Bitrate Description
----- ------- -----------
MPEG-2 Video 11595 kbps 1080p / 24 fps / 16:9

AUDIO:

Codec Language Bitrate Description
----- -------- ------- -----------
Dolby Digital Audio Russian 192 kbps 2.0 / 48 kHz / 192 kbps

FILES:

Name Time In Length Size Total Bitrate
---- ------- ------ ---- -------------
00006.M2TS 0:00:00.000 0:02:29.375 232 071 168 12 429

CHAPTERS:

Number Time In Length Avg Video Rate Max 1-Sec Rate Max 1-Sec Time Max 5-Sec Rate Max 5-Sec Time Max 10Sec Rate Max 10Sec Time Avg Frame Size Max Frame Size Max Frame Time
------ ------- ------ -------------- -------------- -------------- -------------- -------------- -------------- -------------- -------------- -------------- --------------
1 0:00:00.000 0:02:29.375 11 595 kbps 21 150 kbps 00:00:33.041 14 230 kbps 00:02:20.291 13 277 kbps 00:00:58.958 60 389 bytes 469 197 bytes 00:01:01.291

STREAM DIAGNOSTICS:

File PID Type Codec Language Seconds Bitrate Bytes Packets
---- --- ---- ----- -------- -------------- -------------- ------------- -----
00006.M2TS 4113 (0x1011) 0x02 MPEG-2 149,250 11 604 216 495 837 1 178 692
00006.M2TS 4352 (0x1100) 0x81 AC3 rus (Russian) 149,250 192 3 585 024 23 340

<---- END FORUMS PASTE ---->

QUICK SUMMARY:

Disc Title: INCIDENT_IN_A_GHOST_LAND_RUS_BLUEBIRD
Disc Size: 19 482 078 708 bytes
Protection: AACS
BD-Java: Yes
Playlist: 00006.MPLS
Size: 232 071 168 bytes
Length: 0:02:29.375
Total Bitrate: 12,43 Mbps
Video: MPEG-2 Video / 11595 kbps / 1080p / 24 fps / 16:9
Audio: Russian / Dolby Digital Audio / 2.0 / 48 kHz / 192 kbps

********************
PLAYLIST: 01006.MPLS
********************

<--- BEGIN FORUMS PASTE --->

Total Video
Title Codec Length Movie Size Disc Size Bitrate Bitrate Main Audio Track Secondary Audio Track
----- ------ ------- -------------- -------------- ------- ------- ------------------ ---------------------
01006.MPLS MPEG-2 0:02:29 232 071 168 19 482 078 708 12,43 11,59 DD AC3 2.0 192Kbps

DISC INFO:

Disc Title: INCIDENT_IN_A_GHOST_LAND_RUS_BLUEBIRD
Disc Size: 19 482 078 708 bytes
Protection: AACS
BD-Java: Yes
BDInfo: 0.5.8

PLAYLIST REPORT:

Name: 01006.MPLS
Length: 0:02:29.375 (h:m:s.ms)
Size: 232 071 168 bytes
Total Bitrate: 12,43 Mbps

VIDEO:

Codec Bitrate Description
----- ------- -----------
MPEG-2 Video 11595 kbps 1080p / 24 fps / 16:9

AUDIO:

Codec Language Bitrate Description
----- -------- ------- -----------
Dolby Digital Audio Russian 192 kbps 2.0 / 48 kHz / 192 kbps

FILES:

Name Time In Length Size Total Bitrate
---- ------- ------ ---- -------------
00006.M2TS 0:00:00.000 0:02:29.375 232 071 168 12 429

CHAPTERS:

Number Time In Length Avg Video Rate Max 1-Sec Rate Max 1-Sec Time Max 5-Sec Rate Max 5-Sec Time Max 10Sec Rate Max 10Sec Time Avg Frame Size Max Frame Size Max Frame Time
------ ------- ------ -------------- -------------- -------------- -------------- -------------- -------------- -------------- -------------- -------------- --------------
1 0:00:00.000 0:02:29.375 11 595 kbps 21 150 kbps 00:00:33.041 14 230 kbps 00:02:20.291 13 277 kbps 00:00:58.958 60 389 bytes 469 197 bytes 00:01:01.291

STREAM DIAGNOSTICS:

File PID Type Codec Language Seconds Bitrate Bytes Packets
---- --- ---- ----- -------- -------------- -------------- ------------- -----
00006.M2TS 4113 (0x1011) 0x02 MPEG-2 149,250 11 604 216 495 837 1 178 692
00006.M2TS 4352 (0x1100) 0x81 AC3 rus (Russian) 149,250 192 3 585 024 23 340

<---- END FORUMS PASTE ---->

QUICK SUMMARY:

Disc Title: INCIDENT_IN_A_GHOST_LAND_RUS_BLUEBIRD
Disc Size: 19 482 078 708 bytes
Protection: AACS
BD-Java: Yes
Playlist: 01006.MPLS
Size: 232 071 168 bytes
Length: 0:02:29.375
Total Bitrate: 12,43 Mbps
Video: MPEG-2 Video / 11595 kbps / 1080p / 24 fps / 16:9
Audio: Russian / Dolby Digital Audio / 2.0 / 48 kHz / 192 kbps

********************
PLAYLIST: 00007.MPLS
********************

<--- BEGIN FORUMS PASTE --->

Total Video
Title Codec Length Movie Size Disc Size Bitrate Bitrate Main Audio Track Secondary Audio Track
----- ------ ------- -------------- -------------- ------- ------- ------------------ ---------------------
00007.MPLS MPEG-2 0:02:24 230 135 808 19 482 078 708 12,77 11,92 DD AC3 2.0 192Kbps

DISC INFO:

Disc Title: INCIDENT_IN_A_GHOST_LAND_RUS_BLUEBIRD
Disc Size: 19 482 078 708 bytes
Protection: AACS
BD-Java: Yes
BDInfo: 0.5.8

PLAYLIST REPORT:

Name: 00007.MPLS
Length: 0:02:24.166 (h:m:s.ms)
Size: 230 135 808 bytes
Total Bitrate: 12,77 Mbps

VIDEO:

Codec Bitrate Description
----- ------- -----------
MPEG-2 Video 11922 kbps 1080p / 24 fps / 16:9

AUDIO:

Codec Language Bitrate Description
----- -------- ------- -----------
Dolby Digital Audio Russian 192 kbps 2.0 / 48 kHz / 192 kbps

FILES:

Name Time In Length Size Total Bitrate
---- ------- ------ ---- -------------
00007.M2TS 0:00:00.000 0:02:24.166 230 135 808 12 771

CHAPTERS:

Number Time In Length Avg Video Rate Max 1-Sec Rate Max 1-Sec Time Max 5-Sec Rate Max 5-Sec Time Max 10Sec Rate Max 10Sec Time Avg Frame Size Max Frame Size Max Frame Time
------ ------- ------ -------------- -------------- -------------- -------------- -------------- -------------- -------------- -------------- -------------- --------------
1 0:00:00.000 0:02:24.166 11 922 kbps 18 531 kbps 00:00:53.583 13 840 kbps 00:01:52.333 13 597 kbps 00:00:44.750 62 094 bytes 544 535 bytes 00:02:13.333

STREAM DIAGNOSTICS:

File PID Type Codec Language Seconds Bitrate Bytes Packets
---- --- ---- ----- -------- -------------- -------------- ------------- -----
00007.M2TS 4113 (0x1011) 0x02 MPEG-2 144,083 11 929 214 846 004 1 169 646
00007.M2TS 4352 (0x1100) 0x81 AC3 rus (Russian) 144,083 192 3 460 559 22 529

<---- END FORUMS PASTE ---->

QUICK SUMMARY:

Disc Title: INCIDENT_IN_A_GHOST_LAND_RUS_BLUEBIRD
Disc Size: 19 482 078 708 bytes
Protection: AACS
BD-Java: Yes
Playlist: 00007.MPLS
Size: 230 135 808 bytes
Length: 0:02:24.166
Total Bitrate: 12,77 Mbps
Video: MPEG-2 Video / 11922 kbps / 1080p / 24 fps / 16:9
Audio: Russian / Dolby Digital Audio / 2.0 / 48 kHz / 192 kbps

********************
PLAYLIST: 01007.MPLS
********************

<--- BEGIN FORUMS PASTE --->

Total Video
Title Codec Length Movie Size Disc Size Bitrate Bitrate Main Audio Track Secondary Audio Track
----- ------ ------- -------------- -------------- ------- ------- ------------------ ---------------------
01007.MPLS MPEG-2 0:02:24 230 135 808 19 482 078 708 12,77 11,92 DD AC3 2.0 192Kbps

DISC INFO:

Disc Title: INCIDENT_IN_A_GHOST_LAND_RUS_BLUEBIRD
Disc Size: 19 482 078 708 bytes
Protection: AACS
BD-Java: Yes
BDInfo: 0.5.8

PLAYLIST REPORT:

Name: 01007.MPLS
Length: 0:02:24.166 (h:m:s.ms)
Size: 230 135 808 bytes
Total Bitrate: 12,77 Mbps

VIDEO:

Codec Bitrate Description
----- ------- -----------
MPEG-2 Video 11922 kbps 1080p / 24 fps / 16:9

AUDIO:

Codec Language Bitrate Description
----- -------- ------- -----------
Dolby Digital Audio Russian 192 kbps 2.0 / 48 kHz / 192 kbps

FILES:

Name Time In Length Size Total Bitrate
---- ------- ------ ---- -------------
00007.M2TS 0:00:00.000 0:02:24.166 230 135 808 12 771

CHAPTERS:

Number Time In Length Avg Video Rate Max 1-Sec Rate Max 1-Sec Time Max 5-Sec Rate Max 5-Sec Time Max 10Sec Rate Max 10Sec Time Avg Frame Size Max Frame Size Max Frame Time
------ ------- ------ -------------- -------------- -------------- -------------- -------------- -------------- -------------- -------------- -------------- --------------
1 0:00:00.000 0:02:24.166 11 922 kbps 18 531 kbps 00:00:53.583 13 840 kbps 00:01:52.333 13 597 kbps 00:00:44.750 62 094 bytes 544 535 bytes 00:02:13.333

STREAM DIAGNOSTICS:

File PID Type Codec Language Seconds Bitrate Bytes Packets
---- --- ---- ----- -------- -------------- -------------- ------------- -----
00007.M2TS 4113 (0x1011) 0x02 MPEG-2 144,083 11 929 214 846 004 1 169 646
00007.M2TS 4352 (0x1100) 0x81 AC3 rus (Russian) 144,083 192 3 460 559 22 529

<---- END FORUMS PASTE ---->

QUICK SUMMARY:

Disc Title: INCIDENT_IN_A_GHOST_LAND_RUS_BLUEBIRD
Disc Size: 19 482 078 708 bytes
Protection: AACS
BD-Java: Yes
Playlist: 01007.MPLS
Size: 230 135 808 bytes
Length: 0:02:24.166
Total Bitrate: 12,77 Mbps
Video: MPEG-2 Video / 11922 kbps / 1080p / 24 fps / 16:9
Audio: Russian / Dolby Digital Audio / 2.0 / 48 kHz / 192 kbps

********************
PLAYLIST: 00004.MPLS
********************

<--- BEGIN FORUMS PASTE --->

Total Video
Title Codec Length Movie Size Disc Size Bitrate Bitrate Main Audio Track Secondary Audio Track
----- ------ ------- -------------- -------------- ------- ------- ------------------ ---------------------
00004.MPLS MPEG-2 0:02:22 215 144 448 19 482 078 708 12,05 11,24 DD AC3 2.0 192Kbps

DISC INFO:

Disc Title: INCIDENT_IN_A_GHOST_LAND_RUS_BLUEBIRD
Disc Size: 19 482 078 708 bytes
Protection: AACS
BD-Java: Yes
BDInfo: 0.5.8

PLAYLIST REPORT:

Name: 00004.MPLS
Length: 0:02:22.791 (h:m:s.ms)
Size: 215 144 448 bytes
Total Bitrate: 12,05 Mbps

VIDEO:

Codec Bitrate Description
----- ------- -----------
MPEG-2 Video 11235 kbps 1080p / 24 fps / 16:9

AUDIO:

Codec Language Bitrate Description
----- -------- ------- -----------
Dolby Digital Audio English 192 kbps 2.0 / 48 kHz / 192 kbps

FILES:

Name Time In Length Size Total Bitrate
---- ------- ------ ---- -------------
00004.M2TS 0:00:00.000 0:02:22.791 215 144 448 12 054

CHAPTERS:

Number Time In Length Avg Video Rate Max 1-Sec Rate Max 1-Sec Time Max 5-Sec Rate Max 5-Sec Time Max 10Sec Rate Max 10Sec Time Avg Frame Size Max Frame Size Max Frame Time
------ ------- ------ -------------- -------------- -------------- -------------- -------------- -------------- -------------- -------------- -------------- --------------
1 0:00:00.000 0:02:22.791 11 235 kbps 25 548 kbps 00:02:16.375 18 767 kbps 00:00:55.375 17 848 kbps 00:00:55.375 58 518 bytes 722 296 bytes 00:02:16.416

STREAM DIAGNOSTICS:

File PID Type Codec Language Seconds Bitrate Bytes Packets
---- --- ---- ----- -------- -------------- -------------- ------------- -----
00004.M2TS 4113 (0x1011) 0x02 MPEG-2 142,625 11 249 200 540 724 1 091 864
00004.M2TS 4352 (0x1100) 0x81 AC3 eng (English) 142,625 192 3 426 816 22 310

<---- END FORUMS PASTE ---->

QUICK SUMMARY:

Disc Title: INCIDENT_IN_A_GHOST_LAND_RUS_BLUEBIRD
Disc Size: 19 482 078 708 bytes
Protection: AACS
BD-Java: Yes
Playlist: 00004.MPLS
Size: 215 144 448 bytes
Length: 0:02:22.791
Total Bitrate: 12,05 Mbps
Video: MPEG-2 Video / 11235 kbps / 1080p / 24 fps / 16:9
Audio: English / Dolby Digital Audio / 2.0 / 48 kHz / 192 kbps

********************
PLAYLIST: 01004.MPLS
********************

<--- BEGIN FORUMS PASTE --->

Total Video
Title Codec Length Movie Size Disc Size Bitrate Bitrate Main Audio Track Secondary Audio Track
----- ------ ------- -------------- -------------- ------- ------- ------------------ ---------------------
01004.MPLS MPEG-2 0:02:22 215 144 448 19 482 078 708 12,05 11,24 DD AC3 2.0 192Kbps

DISC INFO:

Disc Title: INCIDENT_IN_A_GHOST_LAND_RUS_BLUEBIRD
Disc Size: 19 482 078 708 bytes
Protection: AACS
BD-Java: Yes
BDInfo: 0.5.8

PLAYLIST REPORT:

Name: 01004.MPLS
Length: 0:02:22.791 (h:m:s.ms)
Size: 215 144 448 bytes
Total Bitrate: 12,05 Mbps

VIDEO:

Codec Bitrate Description
----- ------- -----------
MPEG-2 Video 11235 kbps 1080p / 24 fps / 16:9

AUDIO:

Codec Language Bitrate Description
----- -------- ------- -----------
Dolby Digital Audio English 192 kbps 2.0 / 48 kHz / 192 kbps

FILES:

Name Time In Length Size Total Bitrate
---- ------- ------ ---- -------------
00004.M2TS 0:00:00.000 0:02:22.791 215 144 448 12 054

CHAPTERS:

Number Time In Length Avg Video Rate Max 1-Sec Rate Max 1-Sec Time Max 5-Sec Rate Max 5-Sec Time Max 10Sec Rate Max 10Sec Time Avg Frame Size Max Frame Size Max Frame Time
------ ------- ------ -------------- -------------- -------------- -------------- -------------- -------------- -------------- -------------- -------------- --------------
1 0:00:00.000 0:02:22.791 11 235 kbps 25 548 kbps 00:02:16.375 18 767 kbps 00:00:55.375 17 848 kbps 00:00:55.375 58 518 bytes 722 296 bytes 00:02:16.416

STREAM DIAGNOSTICS:

File PID Type Codec Language Seconds Bitrate Bytes Packets
---- --- ---- ----- -------- -------------- -------------- ------------- -----
00004.M2TS 4113 (0x1011) 0x02 MPEG-2 142,625 11 249 200 540 724 1 091 864
00004.M2TS 4352 (0x1100) 0x81 AC3 eng (English) 142,625 192 3 426 816 22 310

<---- END FORUMS PASTE ---->

QUICK SUMMARY:

Disc Title: INCIDENT_IN_A_GHOST_LAND_RUS_BLUEBIRD
Disc Size: 19 482 078 708 bytes
Protection: AACS
BD-Java: Yes
Playlist: 01004.MPLS
Size: 215 144 448 bytes
Length: 0:02:22.791
Total Bitrate: 12,05 Mbps
Video: MPEG-2 Video / 11235 kbps / 1080p / 24 fps / 16:9
Audio: English / Dolby Digital Audio / 2.0 / 48 kHz / 192 kbps

********************
PLAYLIST: 00005.MPLS
********************

<--- BEGIN FORUMS PASTE --->

Total Video
Title Codec Length Movie Size Disc Size Bitrate Bitrate Main Audio Track Secondary Audio Track
----- ------ ------- -------------- -------------- ------- ------- ------------------ ---------------------
00005.MPLS MPEG-2 0:01:59 183 822 336 19 482 078 708 12,29 11,46 DD AC3 2.0 192Kbps

DISC INFO:

Disc Title: INCIDENT_IN_A_GHOST_LAND_RUS_BLUEBIRD
Disc Size: 19 482 078 708 bytes
Protection: AACS
BD-Java: Yes
BDInfo: 0.5.8

PLAYLIST REPORT:

Name: 00005.MPLS
Length: 0:01:59.625 (h:m:s.ms)
Size: 183 822 336 bytes
Total Bitrate: 12,29 Mbps

VIDEO:

Codec Bitrate Description
----- ------- -----------
MPEG-2 Video 11464 kbps 1080p / 24 fps / 16:9

AUDIO:

Codec Language Bitrate Description
----- -------- ------- -----------
Dolby Digital Audio English 192 kbps 2.0 / 48 kHz / 192 kbps

FILES:

Name Time In Length Size Total Bitrate
---- ------- ------ ---- -------------
00005.M2TS 0:00:00.000 0:01:59.625 183 822 336 12 293

CHAPTERS:

Number Time In Length Avg Video Rate Max 1-Sec Rate Max 1-Sec Time Max 5-Sec Rate Max 5-Sec Time Max 10Sec Rate Max 10Sec Time Avg Frame Size Max Frame Size Max Frame Time
------ ------- ------ -------------- -------------- -------------- -------------- -------------- -------------- -------------- -------------- -------------- --------------
1 0:00:00.000 0:01:59.625 11 464 kbps 21 100 kbps 00:01:55.166 16 420 kbps 00:01:40.583 14 972 kbps 00:01:33.083 59 710 bytes 617 227 bytes 00:01:55.208

STREAM DIAGNOSTICS:

File PID Type Codec Language Seconds Bitrate Bytes Packets
---- --- ---- ----- -------- -------------- -------------- ------------- -----
00005.M2TS 4113 (0x1011) 0x02 MPEG-2 119,542 11 472 171 426 478 933 359
00005.M2TS 4352 (0x1100) 0x81 AC3 eng (English) 119,542 192 2 871 552 18 695

<---- END FORUMS PASTE ---->

QUICK SUMMARY:

Disc Title: INCIDENT_IN_A_GHOST_LAND_RUS_BLUEBIRD
Disc Size: 19 482 078 708 bytes
Protection: AACS
BD-Java: Yes
Playlist: 00005.MPLS
Size: 183 822 336 bytes
Length: 0:01:59.625
Total Bitrate: 12,29 Mbps
Video: MPEG-2 Video / 11464 kbps / 1080p / 24 fps / 16:9
Audio: English / Dolby Digital Audio / 2.0 / 48 kHz / 192 kbps

********************
PLAYLIST: 01005.MPLS
********************

<--- BEGIN FORUMS PASTE --->

Total Video
Title Codec Length Movie Size Disc Size Bitrate Bitrate Main Audio Track Secondary Audio Track
----- ------ ------- -------------- -------------- ------- ------- ------------------ ---------------------
01005.MPLS MPEG-2 0:01:59 183 822 336 19 482 078 708 12,29 11,46 DD AC3 2.0 192Kbps

DISC INFO:

Disc Title: INCIDENT_IN_A_GHOST_LAND_RUS_BLUEBIRD
Disc Size: 19 482 078 708 bytes
Protection: AACS
BD-Java: Yes
BDInfo: 0.5.8

PLAYLIST REPORT:

Name: 01005.MPLS
Length: 0:01:59.625 (h:m:s.ms)
Size: 183 822 336 bytes
Total Bitrate: 12,29 Mbps

VIDEO:

Codec Bitrate Description
----- ------- -----------
MPEG-2 Video 11464 kbps 1080p / 24 fps / 16:9

AUDIO:

Codec Language Bitrate Description
----- -------- ------- -----------
Dolby Digital Audio English 192 kbps 2.0 / 48 kHz / 192 kbps

FILES:

Name Time In Length Size Total Bitrate
---- ------- ------ ---- -------------
00005.M2TS 0:00:00.000 0:01:59.625 183 822 336 12 293

CHAPTERS:

Number Time In Length Avg Video Rate Max 1-Sec Rate Max 1-Sec Time Max 5-Sec Rate Max 5-Sec Time Max 10Sec Rate Max 10Sec Time Avg Frame Size Max Frame Size Max Frame Time
------ ------- ------ -------------- -------------- -------------- -------------- -------------- -------------- -------------- -------------- -------------- --------------
1 0:00:00.000 0:01:59.625 11 464 kbps 21 100 kbps 00:01:55.166 16 420 kbps 00:01:40.583 14 972 kbps 00:01:33.083 59 710 bytes 617 227 bytes 00:01:55.208

STREAM DIAGNOSTICS:

File PID Type Codec Language Seconds Bitrate Bytes Packets
---- --- ---- ----- -------- -------------- -------------- ------------- -----
00005.M2TS 4113 (0x1011) 0x02 MPEG-2 119,542 11 472 171 426 478 933 359
00005.M2TS 4352 (0x1100) 0x81 AC3 eng (English) 119,542 192 2 871 552 18 695

<---- END FORUMS PASTE ---->

QUICK SUMMARY:

Disc Title: INCIDENT_IN_A_GHOST_LAND_RUS_BLUEBIRD
Disc Size: 19 482 078 708 bytes
Protection: AACS
BD-Java: Yes
Playlist: 01005.MPLS
Size: 183 822 336 bytes
Length: 0:01:59.625
Total Bitrate: 12,29 Mbps
Video: MPEG-2 Video / 11464 kbps / 1080p / 24 fps / 16:9
Audio: English / Dolby Digital Audio / 2.0 / 48 kHz / 192 kbps

********************
PLAYLIST: 00002.MPLS
********************

<--- BEGIN FORUMS PASTE --->

Total Video
Title Codec Length Movie Size Disc Size Bitrate Bitrate Main Audio Track Secondary Audio Track
----- ------ ------- -------------- -------------- ------- ------- ------------------ ---------------------
00002.MPLS AVC 0:00:59 88 799 232 19 482 078 708 11,89 11,15 DD AC3 2.0 192Kbps

DISC INFO:

Disc Title: INCIDENT_IN_A_GHOST_LAND_RUS_BLUEBIRD
Disc Size: 19 482 078 708 bytes
Protection: AACS
BD-Java: Yes
BDInfo: 0.5.8

PLAYLIST REPORT:

Name: 00002.MPLS
Length: 0:00:59.726 (h:m:s.ms)
Size: 88 799 232 bytes
Total Bitrate: 11,89 Mbps

VIDEO:

Codec Bitrate Description
----- ------- -----------
MPEG-4 AVC Video 11148 kbps 1080p / 23,976 fps / 16:9 / High Profile 4.0

AUDIO:

Codec Language Bitrate Description
----- -------- ------- -----------
Dolby Digital Audio Undetermined 192 kbps 2.0 / 48 kHz / 192 kbps

FILES:

Name Time In Length Size Total Bitrate
---- ------- ------ ---- -------------
00002.M2TS 0:00:00.000 0:00:59.726 88 799 232 11 894

CHAPTERS:

Number Time In Length Avg Video Rate Max 1-Sec Rate Max 1-Sec Time Max 5-Sec Rate Max 5-Sec Time Max 10Sec Rate Max 10Sec Time Avg Frame Size Max Frame Size Max Frame Time
------ ------- ------ -------------- -------------- -------------- -------------- -------------- -------------- -------------- -------------- -------------- --------------
1 0:00:00.000 0:00:59.726 11 148 kbps 11 123 kbps 00:00:00.041 11 113 kbps 00:00:00.000 11 107 kbps 00:00:00.000 58 122 bytes 478 268 bytes 00:00:00.000

STREAM DIAGNOSTICS:

File PID Type Codec Language Seconds Bitrate Bytes Packets
---- --- ---- ----- -------- -------------- -------------- ------------- -----
00002.M2TS 4113 (0x1011) 0x1B AVC 59,643 11 164 83 230 942 453 184
00002.M2TS 4352 (0x1100) 0x81 AC3 und (Undetermined) 59,643 137 1 020 672 6 645

<---- END FORUMS PASTE ---->

QUICK SUMMARY:

Disc Title: INCIDENT_IN_A_GHOST_LAND_RUS_BLUEBIRD
Disc Size: 19 482 078 708 bytes
Protection: AACS
BD-Java: Yes
Playlist: 00002.MPLS
Size: 88 799 232 bytes
Length: 0:00:59.726
Total Bitrate: 11,89 Mbps
Video: MPEG-4 AVC Video / 11148 kbps / 1080p / 23,976 fps / 16:9 / High Profile 4.0
Audio: Undetermined / Dolby Digital Audio / 2.0 / 48 kHz / 192 kbps

********************
PLAYLIST: 01002.MPLS
********************

<--- BEGIN FORUMS PASTE --->

Total Video
Title Codec Length Movie Size Disc Size Bitrate Bitrate Main Audio Track Secondary Audio Track
----- ------ ------- -------------- -------------- ------- ------- ------------------ ---------------------
01002.MPLS AVC 0:00:59 88 799 232 19 482 078 708 11,89 11,15 DD AC3 2.0 192Kbps

DISC INFO:

Disc Title: INCIDENT_IN_A_GHOST_LAND_RUS_BLUEBIRD
Disc Size: 19 482 078 708 bytes
Protection: AACS
BD-Java: Yes
BDInfo: 0.5.8

PLAYLIST REPORT:

Name: 01002.MPLS
Length: 0:00:59.726 (h:m:s.ms)
Size: 88 799 232 bytes
Total Bitrate: 11,89 Mbps

VIDEO:

Codec Bitrate Description
----- ------- -----------
MPEG-4 AVC Video 11148 kbps 1080p / 23,976 fps / 16:9 / High Profile 4.0

AUDIO:

Codec Language Bitrate Description
----- -------- ------- -----------
Dolby Digital Audio Undetermined 192 kbps 2.0 / 48 kHz / 192 kbps

FILES:

Name Time In Length Size Total Bitrate
---- ------- ------ ---- -------------
00002.M2TS 0:00:00.000 0:00:59.726 88 799 232 11 894

CHAPTERS:

Number Time In Length Avg Video Rate Max 1-Sec Rate Max 1-Sec Time Max 5-Sec Rate Max 5-Sec Time Max 10Sec Rate Max 10Sec Time Avg Frame Size Max Frame Size Max Frame Time
------ ------- ------ -------------- -------------- -------------- -------------- -------------- -------------- -------------- -------------- -------------- --------------
1 0:00:00.000 0:00:00.083 52 185 kbps 0 kbps 00:00:00.000 0 kbps 00:00:00.000 0 kbps 00:00:00.000 181 342 bytes 478 268 bytes 00:00:00.000
2 0:00:00.083 0:00:00.500 11 208 kbps 0 kbps 00:00:00.000 0 kbps 00:00:00.000 0 kbps 00:00:00.000 58 436 bytes 476 413 bytes 00:00:00.500
3 0:00:00.583 0:00:41.916 11 033 kbps 11 119 kbps 00:00:01.000 11 107 kbps 00:00:01.001 11 105 kbps 00:00:01.001 57 524 bytes 471 600 bytes 00:00:01.501
4 0:00:42.500 0:00:17.225 11 227 kbps 11 105 kbps 00:00:46.004 11 103 kbps 00:00:46.004 11 103 kbps 00:00:46.046 58 676 bytes 471 398 bytes 00:00:45.545

STREAM DIAGNOSTICS:

File PID Type Codec Language Seconds Bitrate Bytes Packets
---- --- ---- ----- -------- -------------- -------------- ------------- -----
00002.M2TS 4113 (0x1011) 0x1B AVC 59,643 11 164 83 230 942 453 184
00002.M2TS 4352 (0x1100) 0x81 AC3 und (Undetermined) 59,643 137 1 020 672 6 645

<---- END FORUMS PASTE ---->

QUICK SUMMARY:

Disc Title: INCIDENT_IN_A_GHOST_LAND_RUS_BLUEBIRD
Disc Size: 19 482 078 708 bytes
Protection: AACS
BD-Java: Yes
Playlist: 01002.MPLS
Size: 88 799 232 bytes
Length: 0:00:59.726
Total Bitrate: 11,89 Mbps
Video: MPEG-4 AVC Video / 11148 kbps / 1080p / 23,976 fps / 16:9 / High Profile 4.0
Audio: Undetermined / Dolby Digital Audio / 2.0 / 48 kHz / 192 kbps
pb.wtf



Скачать Страна призраков через торрент https://d.radikal.ru/d22/1806/14/6a384a9dc6bb.png Скачать фильм Страна призраков через торрент бесплантно в хорошем качестве Описание: Бэт возвращается в родные места, где много лет назад с её семьёй произошла страшная трагедия. В старом особняке её ждут мать и ... 9.4 10 5
Info! Золотая раздача, скачанное не засчитывается.
Торрент: Зарегистрирован [2018-06-28 06:18] · скачан: 30 раз
Статус: √ проверено
Размер: 18.14 GB
Как cкачать? Как скачать Страна призраков через торрент | qTorrent

% Раздел Тема Автор DL S | L
Фильмы [HD 720p, 1080p] (Хороший звук DUB, MVO) [ 5.28 GB ] Страна призраков / Incident in a Ghost Land [2018 BDRip 720p] [] killermax2013 Скачать
1 | 0
Фильмы 2018 [DVDrip, WEB-DLRip, HDrip] (DUB, MVO) [ 1.46 GB ] Страна призраков / Incident in a Ghost Land [2018 HDRip] DUB [] bober100 Скачать
1 | 0
Фильмы [HD 720p, 1080p] (Хороший звук DUB, MVO) [ 8.47 GB ] Страна призраков / Incident in a Ghost Land [2018 BDRip 1080p] [] killermax2013 Скачать
1 | 0

28-11-2019 20:33  

Отключить всю рекламу на сайте

    Дорогой пользователь! Огромная просьба, поблагодарите релизера, оцените раздачу и оставьте свои комментарий, если Вы скачали Страна призраков через торрент бесплатно! Внесите свою лепту в развитие PiratBit!
    Комментировать посты могут только пользователи прошедшие не сложную регистрацию
    Показать сообщения:    

    Страна призраков через торрент
    Скачать бесплатно Страна призраков
    Страна призраков скачать торрент
    Страна призраков смотреть онлайн
    Cкачать фильм Страна призраков бесплатно
    Страна призраков скачать торрент в хорошем качестве
    Страна призраков смотреть онлайн бесплатно в хорошем качестве


    Вы не можете начинать темы
    Вы не можете отвечать на сообщения
    Вы не можете редактировать свои сообщения
    Вы не можете удалять свои сообщения
    Вы не можете голосовать в опросах
    Вы не можете прикреплять файлы к сообщениям
    Вы можете скачивать файлы