Ссылка на приватное зеркало всего за 1$. Внимание количество ограничено!!!

OK

1+1

iTunes

мы

OK

1

WEB-DLRip

Джокер

Пифагор

Ведьмак / The Witcher сериал

iTunes

ПШазам

ОК

Оно 2

iTunes

30
pack

Вам бонус

ВАЖНО

!!Акция!!

Alien_RageХит недели

RePack

Resident Evil 21

ИГРА 18+

pack

RePack

jed

RePack

fifa19

RePack

Assassins Creed: Odyssey

RePack

NEED FOR SPEED™ PAYBACK

4 сезон

9 сезон

Бесстыжие 9 сезон

Все сериалы

все сериалы на PB.wtf

RePack

FAR CRY 5
  

Бумажный год / Paper Year (Ребекка Аддельман) [2018, драма, мелодрама, WEB-DL 720p] MVO ["Синема УС"] pb.wtf

Бумажный год через торрент pb.wtf

Размер: 3.08 GB | Добавлен: 1 год 7 мес. назад | Торрент скачан:12 раз
Скачать  

28-06-2018 10:28 Бумажный год Скачать торрент  

Бумажный год / Paper YearГод выпуска: 2018
Страна: Канада
Жанр: драма, мелодрама
Продолжительность: 01:31:18
Перевод: Любительский (многоголосый) | "Синема УС"
Субтитры: отсутствуют

Режиссер: Ребекка Аддельман

rating

В ролях:

Энди МакДауэлл, Эван Джогиа, Ив Хьюсон, Хамиш Линклэйтер, Ивэн Штерн, Эндрю Марковиак, Даниэла Барбоза, Кэти Лэйвери Бриер, Николь Стэмп, Майкл Гордин Шор

Описание:

Молодожёны сталкиваются с рядом проблем в течение первого года их совместной жизни.

Качество: WEB-DL 720p
Формат: MKV

Видео: h.264, 4 450 kb/s, 1280x528
Аудио#1: Русский, (AC3, 2 ch, 384 Кбит/с)
скриншот  скриншот  скриншот  

Общее
Уникальный идентификатор : 231793040983146217940048805143622387228 (0xAE61B742246FEFCEADC28BD203A3061C)
Полное имя : D:\Paper.Year.2018.P.WEB-DL.72Op_KOSHARA.mkv
Формат : Matroska
Версия формата : Version 2
Размер файла : 3,08 Гбайт
Продолжительность : 1 ч. 31 м.
Режим общего битрейта : Переменный
Общий поток : 4836 Кбит/сек
Дата кодирования : UTC 2018-06-27 18:49:58
Программа кодирования : mkvmerge v8.3.0 ('Over the Horizon') 64bit
Библиотека кодирования : libebml v1.3.1 + libmatroska v1.4.2

Видео
Идентификатор : 1
Формат : AVC
Формат/Информация : Advanced Video Codec
Профиль формата : High@L4.1
Параметр CABAC формата : Да
Параметр RefFrames формата : 4 кадра
Идентификатор кодека : V_MPEG4/ISO/AVC
Продолжительность : 1 ч. 31 м.
Вид битрейта : Переменный
Битрейт : 4450 Кбит/сек
Максимальный битрейт : 5000 Кбит/сек
Ширина : 1280 пикселей
Высота : 528 пикселей
Соотношение сторон : 2,40:1
Режим частоты кадров : Постоянный
Частота кадров : 23,976 (24000/1001) кадра/сек
Стандарт вещания : Component
Цветовое пространство : YUV
Субдискретизация насыщенности : 4:2:0
Битовая глубина : 8 бит
Тип развёртки : Прогрессивная
Бит/(Пиксели*Кадры) : 0.269
Размер потока : 2,78 Гбайт (90%)
Default : Да
Forced : Нет
Цветовой диапазон : Limited
Основные цвета : BT.709
Характеристики трансфера : BT.709
Коэффициенты матрицы : BT.709

Аудио
Идентификатор : 2
Формат : AC-3
Формат/Информация : Audio Coding 3
Расширение режима : CM (complete main)
Параметр Endianness формата : Big
Идентификатор кодека : A_AC3
Продолжительность : 1 ч. 31 м.
Вид битрейта : Постоянный
Битрейт : 384 Кбит/сек
Каналы : 2 канала
Расположение каналов : Front: L R
Частота : 48,0 КГц
Частота кадров : 31,250 кадров/сек (1536 spf)
Метод сжатия : С потерями
Размер потока : 251 Мбайт (8%)
Default : Да
Forced : Нет

pb.wtf



Скачать Бумажный год через торрент http://img11.lostpic.net/2018/06/28/bdca565696488a385b75b56a05590173.jpg Скачать фильм Бумажный год через торрент бесплантно в хорошем качестве Описание: Молодожёны сталкиваются с рядом проблем в течение первого года их совместной ... 10 10 2
Торрент: Зарегистрирован [2018-06-28 10:28] · скачан: 12 раз
Статус: T временная
Размер: 3.08 GB
Как cкачать? Как скачать Бумажный год через торрент | qTorrent

% Раздел Тема Автор DL S | L
T Фильмы (мультфильмы) cо спонсором показа (Новинки AVI/MKV) [ 1.36 GB ] Бумажный год / Paper Year [2018 WEB-DLRip] MVO ["Синема УС"] bober100 Скачать
1 | 0

28-11-2019 20:33  

Отключить всю рекламу на сайте

28-06-2018 12:10 Бумажный год Скачать торрент  

"Молодожёны сталкиваются с рядом проблем в течение первого года их совместной жизни." да ладно? че, серьезно сталкиваются? Описание из разряда "круг - круглый, вода мокрая, а ноги растут из задницы")))pb.wtf



    Дорогой пользователь! Огромная просьба, поблагодарите релизера, оцените раздачу и оставьте свои комментарий, если Вы скачали Бумажный год через торрент бесплатно! Внесите свою лепту в развитие PiratBit!
    Комментировать посты могут только пользователи прошедшие не сложную регистрацию
    Показать сообщения:    

    Бумажный год через торрент
    Скачать бесплатно Бумажный год
    Бумажный год скачать торрент
    Бумажный год смотреть онлайн
    Cкачать фильм Бумажный год бесплатно
    Бумажный год скачать торрент в хорошем качестве
    Бумажный год смотреть онлайн бесплатно в хорошем качестве


    Вы не можете начинать темы
    Вы не можете отвечать на сообщения
    Вы не можете редактировать свои сообщения
    Вы не можете удалять свои сообщения
    Вы не можете голосовать в опросах
    Вы не можете прикреплять файлы к сообщениям
    Вы можете скачивать файлы