Ссылка на приватное зеркало нашего сайта всего за 1$. Внимание количество ограничено!!!

2 сезон

iTunes

1 сезон

1

2 сезон

2 сезон

iTunes

1 сезон

RePack

30

Ultimate

ВАЖНО

ИГРА 18+

pack

RePack

MK11
pack

Забери бонус

RePack

jed

!!Акция!!

Alien_Rage

RePack

fifa19

RePack

Assassins Creed: Odyssey

RePack

NEED FOR SPEED™ PAYBACK

4 сезон

9 сезон

Бесстыжие 9 сезон

Все сериалы

все сериалы на PB.wtf

RePack

FAR CRY 5
  

Миниатюрист / The Miniaturist / Серии: 1-2 из 2 (Гильем Моралес / Guillem Morales) [2017, драма, история, BDRip 720p] [MVO] (FilmsClub) pb.wtf

Миниатюрист через торрент pb.wtf

Размер: 5.66 GB | Добавлен: 2 года 5 мес. назад | Торрент скачан:11 раз
Скачать  

28-06-2018 11:06 Миниатюрист Скачать торрент  

Миниатюрист / The Miniaturist Год выпуска: 2017
Страна: Великобритания
Производство: BBC
Жанр: драма, история
Продолжительность: 2x ~01:30:00
Перевод: Профессиональный (многоголосый закадровый) FilmsClub)

Режиссёр: Гильем Моралес / Guillem Morales

В ролях: Аня Тейлор-Джой, Ромола Гарай, Хейли Сквайрс, Алекс Хасселл, Каолан Бирн, Салли Мессхам, Джеффри Стейтфайлд, Грэм Элвелл, Паапа Эссиеду, Зигги Хит, Ян Хогг, Айслин МакГукин, Эмили Беррингтон, Кристофер Годвин, Джек Брэди и др.

Описание: Действие разворачивается в XVII веке в Амстердаме, в доме богатого и уважаемого человека, занимающегося торговлей. Его молодая жена Нелла получает в подарок миниатюрную копию их дома, а также мини-копии всех обитателей роскошного особняка. Постепенно Нелла всё ближе узнаёт свою новую таинственную семью, а ещё понимает — миниатюрный дом в её спальне живёт своей, пугающей жизнью.

rating

Качество: BDRip 720p
Формат: MKV
Видео: AVC(High@L4.1) , 1,78:1 = 16:9, 1280x720| 4569 kbps| 25 fps
Аудио #1: Russian AC3 , 2.0 / 48 Khz / 192 kbps / 16-bit |FilmsClub|
Аудио #2: English AC3 , 2.0 / 48kHz / 640kbps / 16-bit |Original|
Субтитры: нет
General
Unique ID : 210930402590559864373299172291618447464 (0x9EAFB7C538340B4CB66765BD3842A068)
Complete name : F:\The.Miniaturist.S01.720p.films.club\The.Miniaturist.S01E01.720p.BluRay.x264-films.club.mkv
Format : Matroska
Format version : Version 4 / Version 2
File size : 3.40 GiB
Duration : 1 h 30 min
Overall bit rate : 5 403 kb/s
Encoded date : UTC 2018-06-25 18:05:04
Writing application : mkvmerge v18.0.0 ('Apricity') 64-bit
Writing library : libebml v1.3.5 + libmatroska v1.4.8

Video
ID : 1
Format : AVC
Format/Info : Advanced Video Codec
Format profile : High@L4.1
Format settings : CABAC / 5 Ref Frames
Format settings, CABAC : Yes
Format settings, RefFrames : 5 frames
Codec ID : V_MPEG4/ISO/AVC
Duration : 1 h 30 min
Bit rate : 4 569 kb/s
Width : 1 280 pixels
Height : 720 pixels
Display aspect ratio : 16:9
Frame rate mode : Constant
Frame rate : 25.000 FPS
Color space : YUV
Chroma subsampling : 4:2:0
Bit depth : 8 bits
Scan type : Progressive
Bits/(Pixel*Frame) : 0.198
Stream size : 2.81 GiB (83%)
Writing library : x264 core 155 r2901 7d0ff22
Encoding settings : cabac=1 / ref=5 / deblock=1:-3:-3 / analyse=0x3:0x113 / me=umh / subme=8 / psy=1 / psy_rd=1.00:0.00 / mixed_ref=1 / me_range=16 / chroma_me=1 / trellis=1 / 8x8dct=1 / cqm=0 / deadzone=21,11 / fast_pskip=1 / chroma_qp_offset=-2 / threads=6 / lookahead_threads=1 / sliced_threads=0 / nr=0 / decimate=1 / interlaced=0 / bluray_compat=0 / constrained_intra=0 / bframes=3 / b_pyramid=2 / b_adapt=2 / b_bias=0 / direct=3 / weightb=1 / open_gop=0 / weightp=2 / keyint=250 / keyint_min=25 / scenecut=40 / intra_refresh=0 / rc_lookahead=50 / rc=2pass / mbtree=1 / bitrate=4569 / ratetol=1.0 / qcomp=0.60 / qpmin=0 / qpmax=69 / qpstep=4 / cplxblur=20.0 / qblur=0.5 / ip_ratio=1.40 / aq=3:0.80
Default : Yes
Forced : No

Audio #1
ID : 2
Format : AC-3
Format/Info : Audio Coding 3
Format settings, Endianness : Big
Codec ID : A_AC3
Duration : 1 h 30 min
Bit rate mode : Constant
Bit rate : 192 kb/s
Channel(s) : 2 channels
Channel positions : Front: L R
Sampling rate : 48.0 kHz
Frame rate : 31.250 FPS (1536 SPF)
Bit depth : 16 bits
Compression mode : Lossy
Stream size : 124 MiB (4%)
Title : films.club
Language : Russian
Service kind : Complete Main
Default : Yes
Forced : Yes

Audio #2
ID : 3
Format : AC-3
Format/Info : Audio Coding 3
Format settings, Endianness : Big
Codec ID : A_AC3
Duration : 1 h 30 min
Bit rate mode : Constant
Bit rate : 640 kb/s
Channel(s) : 2 channels
Channel positions : Front: L R
Sampling rate : 48.0 kHz
Frame rate : 31.250 FPS (1536 SPF)
Bit depth : 16 bits
Compression mode : Lossy
Stream size : 412 MiB (12%)
Language : English
Service kind : Complete Main
Default : No
Forced : No
скриншот  скриншот  скриншот  
pb.wtf



Скачать Миниатюрист через торрент http://i105.fastpic.ru/big/2018/0628/bc/30e8c3387b6d4c07468d2d9c8e4804bc.jpg Скачать фильм Миниатюрист через торрент бесплантно в хорошем качестве Описание: Действие разворачивается в XVII веке в Амстердаме, в доме богатого и уважаемого человека, занимающегося торговлей. Его молодая ... 5.5 10 2
Торрент: Зарегистрирован [2018-06-28 11:06] · скачан: 11 раз
Статус: √ проверено
Размер: 5.66 GB
Как cкачать? Как скачать Миниатюрист через торрент | qTorrent

28-11-2019 20:33  

Отключить всю рекламу на сайте

    Дорогой пользователь! Огромная просьба, поблагодарите релизера, оцените раздачу и оставьте свои комментарий, если Вы скачали Миниатюрист через торрент бесплатно! Внесите свою лепту в развитие PiratBit!
    Комментировать посты могут только пользователи прошедшие не сложную регистрацию
    Показать сообщения:    

    Миниатюрист через торрент
    Скачать бесплатно Миниатюрист
    Миниатюрист скачать торрент
    Миниатюрист смотреть онлайн
    Cкачать фильм Миниатюрист бесплатно
    Миниатюрист скачать торрент в хорошем качестве
    Миниатюрист смотреть онлайн бесплатно в хорошем качестве


    Вы не можете начинать темы
    Вы не можете отвечать на сообщения
    Вы не можете редактировать свои сообщения
    Вы не можете удалять свои сообщения
    Вы не можете голосовать в опросах
    Вы не можете прикреплять файлы к сообщениям
    Вы можете скачивать файлы