Ссылка на приватное зеркало всего за 1$. Внимание количество ограничено!!!

OK

1+1

iTunes

мы

OK

1

WEB-DLRip

Джокер

Пифагор

Ведьмак / The Witcher сериал

iTunes

ПШазам

ОК

Оно 2

iTunes

30
pack

Вам бонус

ВАЖНО

!!Акция!!

Alien_RageХит недели

RePack

Resident Evil 21

ИГРА 18+

pack

RePack

jed

RePack

fifa19

RePack

Assassins Creed: Odyssey

RePack

NEED FOR SPEED™ PAYBACK

4 сезон

9 сезон

Бесстыжие 9 сезон

Все сериалы

все сериалы на PB.wtf

RePack

FAR CRY 5
  

Глоссарий несбывшихся надежд / Glossary of Broken Dreams (Йоханнес Гренцфуртнер) [2018, Мультфильм, драма, комедия, история, музыка, WEB-DL 720p] MVO ["Синема УС"] pb.wtf

Глоссарий несбывшихся надежд через торрент pb.wtf

Размер: 3.23 GB | Добавлен: 1 год 7 мес. назад | Торрент скачан:28 раз
Скачать  

28-06-2018 11:46 Глоссарий несбывшихся надежд Скачать торрент  

Глоссарий несбывшихся надежд / Glossary of Broken DreamsГод выпуска: 2018
Страна: Австрия, США
Жанр: Мультфильм, драма, комедия, история, музыка
Продолжительность: 01:39:50
Перевод: Профессиональный (многоголосый) | "Синема УС"
Субтитры: отсутствуют

Режиссер: Йоханнес Гренцфуртнер

rating

В ролях:

Йоханнес Гренцфуртнер, Чарли Пулон, Даниэль Хасибар, Стюарт Фриман, Конни Ли, Нико Альм, Христиан Шадель, Ханнес Дашер, Роланд Гратцер, Дуглас Робинсон

Описание:

Куклы, пиксели, аниме, актёры, кадры кинохроники. Все вокруг говорят о свободе, неприкосновенности частной жизни, самоопределении, сопротивлении, рынке, левых взглядах. Йоханнес, режиссёр фильма, больше не мог терпеть бездумное употребление всех этих терминов в чрезвычайно умных интернет-дискуссиях. Заручившись поддержкой своего друга, Ишана Равала, он снял документальный фильм, чтобы раз и навсегда объяснить, переоценить или даже принести в жертву самых важных золотых тельцов любого разговора.

Качество: WEB-DL 720p
Формат: MKV

Видео: h.264, 4 243 kb/s, 1280x720
Аудио#1: Русский, (AC3, 2 ch, 384 Кбит/с)
скриншот  скриншот  скриншот  

Общее
Уникальный идентификатор : 187678027014529308315364316223118597883 (0x8D3179247E0E076FB99A100AAA715EFB)
Полное имя : D:\Glossary.of.Broken.Dreams.2018.P.WEB-DL.72Op_KOSHARA.mkv
Формат : Matroska
Версия формата : Version 2
Размер файла : 3,23 Гбайт
Продолжительность : 1 ч. 39 м.
Режим общего битрейта : Переменный
Общий поток : 4629 Кбит/сек
Дата кодирования : UTC 2018-06-27 18:57:55
Программа кодирования : mkvmerge v8.3.0 ('Over the Horizon') 64bit
Библиотека кодирования : libebml v1.3.1 + libmatroska v1.4.2

Видео
Идентификатор : 1
Формат : AVC
Формат/Информация : Advanced Video Codec
Профиль формата : High@L4.1
Параметр CABAC формата : Да
Параметр RefFrames формата : 4 кадра
Идентификатор кодека : V_MPEG4/ISO/AVC
Продолжительность : 1 ч. 39 м.
Вид битрейта : Переменный
Битрейт : 4243 Кбит/сек
Максимальный битрейт : 5000 Кбит/сек
Ширина : 1280 пикселей
Высота : 720 пикселей
Соотношение сторон : 16:9
Режим частоты кадров : Постоянный
Частота кадров : 23,976 (24000/1001) кадра/сек
Стандарт вещания : Component
Цветовое пространство : YUV
Субдискретизация насыщенности : 4:2:0
Битовая глубина : 8 бит
Тип развёртки : Прогрессивная
Бит/(Пиксели*Кадры) : 0.188
Размер потока : 2,90 Гбайт (90%)
Default : Да
Forced : Нет
Цветовой диапазон : Limited
Основные цвета : BT.709
Характеристики трансфера : BT.709
Коэффициенты матрицы : BT.709

Аудио
Идентификатор : 2
Формат : AC-3
Формат/Информация : Audio Coding 3
Расширение режима : CM (complete main)
Параметр Endianness формата : Big
Идентификатор кодека : A_AC3
Продолжительность : 1 ч. 39 м.
Вид битрейта : Постоянный
Битрейт : 384 Кбит/сек
Каналы : 2 канала
Расположение каналов : Front: L R
Частота : 48,0 КГц
Частота кадров : 31,250 кадров/сек (1536 spf)
Метод сжатия : С потерями
Размер потока : 274 Мбайт (8%)
Default : Да
Forced : Нет

pb.wtf



Скачать Глоссарий несбывшихся надежд через торрент http://img11.lostpic.net/2018/06/28/610975565968333c4ce3f9c501d921f5.jpg Скачать фильм Глоссарий несбывшихся надежд через торрент бесплантно в хорошем качестве Описание: Куклы, пиксели, аниме, актёры, кадры кинохроники. Все вокруг говорят о свободе, неприкосновенности частной жизни, ... 7 10 3
Торрент: Зарегистрирован [2018-06-28 11:46] · скачан: 28 раз
Статус: T временная
Размер: 3.23 GB
Как cкачать? Как скачать Глоссарий несбывшихся надежд через торрент | qTorrent

% Раздел Тема Автор DL S | L
T Фильмы (мультфильмы) cо спонсором показа (Новинки AVI/MKV) [ 1.38 GB ] Глоссарий несбывшихся надежд / Glossary of Broken Dreams [2018 Мультфильм история музыка WEB-DLRip] MVO ["Синема УС"] bober100 Скачать
1 | 0

28-11-2019 20:33  

Отключить всю рекламу на сайте

    Дорогой пользователь! Огромная просьба, поблагодарите релизера, оцените раздачу и оставьте свои комментарий, если Вы скачали Глоссарий несбывшихся надежд через торрент бесплатно! Внесите свою лепту в развитие PiratBit!
    Комментировать посты могут только пользователи прошедшие не сложную регистрацию
    Показать сообщения:    

    Глоссарий несбывшихся надежд через торрент
    Скачать бесплатно Глоссарий несбывшихся надежд
    Глоссарий несбывшихся надежд скачать торрент
    Глоссарий несбывшихся надежд смотреть онлайн
    Cкачать фильм Глоссарий несбывшихся надежд бесплатно
    Глоссарий несбывшихся надежд скачать торрент в хорошем качестве
    Глоссарий несбывшихся надежд смотреть онлайн бесплатно в хорошем качестве


    Вы не можете начинать темы
    Вы не можете отвечать на сообщения
    Вы не можете редактировать свои сообщения
    Вы не можете удалять свои сообщения
    Вы не можете голосовать в опросах
    Вы не можете прикреплять файлы к сообщениям
    Вы можете скачивать файлы