Ссылка на приватное зеркало всего за 1$. Внимание количество ограничено!!!

OK

1+1

iTunes

мы

OK

1

WEB-DLRip

Джокер

Пифагор

Ведьмак / The Witcher сериал

iTunes

ПШазам

ОК

Оно 2

iTunes

30
pack

Вам бонус

ВАЖНО

!!Акция!!

Alien_RageХит недели

RePack

Resident Evil 21

ИГРА 18+

pack

RePack

jed

RePack

fifa19

RePack

Assassins Creed: Odyssey

RePack

NEED FOR SPEED™ PAYBACK

4 сезон

9 сезон

Бесстыжие 9 сезон

Все сериалы

все сериалы на PB.wtf

RePack

FAR CRY 5
  

Зовите меня Королем / Call Me King (Р.Л. Скотт) [2017, Боевик, триллер, драма, криминал, WEB-DL 720p] MVO ["Синема УС"] pb.wtf

Зовите меня Королем через торрент pb.wtf

Размер: 3.97 GB | Добавлен: 1 год 6 мес. назад | Торрент скачан:69 раз
Скачать  

28-06-2018 12:08 Зовите меня Королем Скачать торрент  

Зовите меня Королем / Call Me KingГод выпуска: 2017
Страна: США
Жанр: Боевик, триллер, драма, криминал
Продолжительность: 01:29:29
Перевод: Любительский (многоголосый) | "Синема УС"
Субтитры: отсутствуют

Режиссер: Р.Л. Скотт

rating

В ролях:

Эймин Джозеф, Бай Лин, Крис Малки, Билл Коббс, Габриэль Деннис, Лил Дж, Шон Миксон, Моник Томпсон, Ияд Хаджджадж, Шон Риггз

Описание:

Во всем мире среди продавцов оружия в первую очередь ценятся три вещи: верность, честь и проницательность, но это не идет ни в какое сравнение с семейными связями. Влacть притягивает врагов и толкает любимых на предательство, которое ранит острее ножа. Каждому придется выбирать, на чьей он стороне в этой войне. В конце концов, историей доказано, что на троне может быть лишь один король.

Качество: WEB-DL 720p
Формат: MKV

Видео: h.264, 4 396 kb/s, 1280x488
Аудио#1: AC3, 2 ch, 384 Кбит/с
скриншот  скриншот  скриншот  

Общее
Уникальный идентификатор : 173483071634024820262946312940864728826 (0x82839FCEE0356E3ABA359F08EF70EEFA)
Полное имя : D:\Call.Me.King.2015.P.WEB-DL.72Op_KOSHARA.mkv
Формат : Matroska
Версия формата : Version 2
Размер файла : 3,97 Гбайт
Продолжительность : 1 ч. 58 м.
Режим общего битрейта : Переменный
Общий поток : 4782 Кбит/сек
Дата кодирования : UTC 2018-06-27 17:44:51
Программа кодирования : mkvmerge v8.3.0 ('Over the Horizon') 64bit
Библиотека кодирования : libebml v1.3.1 + libmatroska v1.4.2

Видео
Идентификатор : 1
Формат : AVC
Формат/Информация : Advanced Video Codec
Профиль формата : High@L4.1
Параметр CABAC формата : Да
Параметр RefFrames формата : 4 кадра
Идентификатор кодека : V_MPEG4/ISO/AVC
Продолжительность : 1 ч. 58 м.
Вид битрейта : Переменный
Битрейт : 4396 Кбит/сек
Максимальный битрейт : 5000 Кбит/сек
Ширина : 1280 пикселей
Высота : 488 пикселей
Соотношение сторон : 2,623
Режим частоты кадров : Постоянный
Частота кадров : 23,976 (24000/1001) кадра/сек
Стандарт вещания : Component
Цветовое пространство : YUV
Субдискретизация насыщенности : 4:2:0
Битовая глубина : 8 бит
Тип развёртки : Прогрессивная
Бит/(Пиксели*Кадры) : 0.287
Размер потока : 3,57 Гбайт (90%)
Default : Да
Forced : Нет
Цветовой диапазон : Limited
Основные цвета : BT.709
Характеристики трансфера : BT.709
Коэффициенты матрицы : BT.709

Аудио
Идентификатор : 2
Формат : AC-3
Формат/Информация : Audio Coding 3
Расширение режима : CM (complete main)
Параметр Endianness формата : Big
Идентификатор кодека : A_AC3
Продолжительность : 1 ч. 58 м.
Вид битрейта : Постоянный
Битрейт : 384 Кбит/сек
Каналы : 2 канала
Расположение каналов : Front: L R
Частота : 48,0 КГц
Частота кадров : 31,250 кадров/сек (1536 spf)
Метод сжатия : С потерями
Размер потока : 326 Мбайт (8%)
Default : Да
Forced : Нет

pb.wtf



Скачать Зовите меня Королем через торрент http://img11.lostpic.net/2018/06/28/59a76a4bd5ccf2b0625bf8e45490db8a.jpg Скачать фильм Зовите меня Королем через торрент бесплантно в хорошем качестве Описание: Во всем мире среди продавцов оружия в первую очередь ценятся три вещи: верность, честь и проницательность, но это не идет ни в ... 10 10 3
Торрент: Зарегистрирован [2018-06-28 12:08] · скачан: 69 раз
Статус: T временная
Размер: 3.97 GB
Как cкачать? Как скачать Зовите меня Королем через торрент | qTorrent

% Раздел Тема Автор DL S | L
T Фильмы (мультфильмы) cо спонсором показа (Новинки AVI/MKV) [ 1.46 GB ] Зовите меня Королем / Call Me King [2017 WEB-DLRip] MVO ["Синема УС"] bober100 Скачать
1 | 0

28-11-2019 20:33  

Отключить всю рекламу на сайте

29-06-2018 06:51 Зовите меня Королем Скачать торрент  

Гов.ённая кодировка, все дергается, смотреть - глаза слезятся. В топку кодировщика за халтуру!pb.wtf



29-06-2018 09:15 Зовите меня Королем Скачать торрент  

rbrwbwrbrwb писал(а):

Гов.ённая кодировка, все дергается, смотреть - глаза слезятся. В топку кодировщика за халтуру!

у дятлов казлинщиков на всех релизах так из-за рекламных вставок. особенно заметно это на 1080рpb.wtf



    Дорогой пользователь! Огромная просьба, поблагодарите релизера, оцените раздачу и оставьте свои комментарий, если Вы скачали Зовите меня Королем через торрент бесплатно! Внесите свою лепту в развитие PiratBit!
    Комментировать посты могут только пользователи прошедшие не сложную регистрацию
    Показать сообщения:    

    Зовите меня Королем через торрент
    Скачать бесплатно Зовите меня Королем
    Зовите меня Королем скачать торрент
    Зовите меня Королем смотреть онлайн
    Cкачать фильм Зовите меня Королем бесплатно
    Зовите меня Королем скачать торрент в хорошем качестве
    Зовите меня Королем смотреть онлайн бесплатно в хорошем качестве


    Вы не можете начинать темы
    Вы не можете отвечать на сообщения
    Вы не можете редактировать свои сообщения
    Вы не можете удалять свои сообщения
    Вы не можете голосовать в опросах
    Вы не можете прикреплять файлы к сообщениям
    Вы можете скачивать файлы