Ссылка на приватное зеркало всего за 1$. Внимание количество ограничено!!!

OK

1+1

iTunes

мы

OK

1

WEB-DLRip

Джокер

Пифагор

Ведьмак / The Witcher сериал

Лицензия

ПШазам

ОК

Оно 2

iTunes

30
pack

Вам бонус

ВАЖНО

!!Акция!!

Alien_RageХит недели

RePack

Resident Evil 21

ИГРА 18+

pack

RePack

jed

RePack

fifa19

RePack

Assassins Creed: Odyssey

RePack

NEED FOR SPEED™ PAYBACK

4 сезон

9 сезон

Бесстыжие 9 сезон

Все сериалы

все сериалы на PB.wtf

RePack

FAR CRY 5
  

Не на ту запал / The Wrong Crush (Дэвид ДеКото) [2017, Триллер, драма, WEB-DL 720p] MVO ["Синема УС"] pb.wtf

Не на ту запал через торрент pb.wtf

Размер: 3.3 GB | Добавлен: 1 год 6 мес. назад | Торрент скачан:30 раз
Скачать  

28-06-2018 15:58 Не на ту запал Скачать торрент  

Не на ту запал / The Wrong CrushГод выпуска: 2017
Страна: США
Жанр: Триллер, драма
Продолжительность: 01:29:01
Перевод: Любительский (многоголосый) | "Синема УС"
Субтитры: отсутствуют

Режиссер: Дэвид ДеКото

rating

В ролях:

Рикардо Хойос, Лесли Кэй, Виктория Конефель, Вивика А. Фокс, Педро Корреа, Рита Грэй, Натали Харо, Мередит Луиз Томас, Джон Бридделл, Джаррет Джанако

Описание:

Звезде школы, спортсменке и просто красавице Амелии начинает докучать новый поклонник, который недавно перевелся в ее школу. Несмотря на то, что девушка явно дала понять, что кроме дружбы рассчитывать ему не на что и у нее есть парень, новичок постоянно преследует ее и пытается соблазнить. Казалось бы, обычная школьная влюбленность, подростки в этом возрасте все такие. Но далеко не у всех за плечами трагичное прошлое, как у Амелии, и далеко не все парни становятся безумными сталкерами...

Качество: WEB-DL 720p
Формат: MKV

Видео: h.264, 4 922 kb/s, 1280x720
Аудио#1: Русский, (AC3, 2 ch, 384 Кбит/с)
скриншот  скриншот  скриншот  

Общее
Уникальный идентификатор : 242131628530504688979151690645670251869 (0xB628DAFAA4B505559E8B26766458CD5D)
Полное имя : D:\The.Wrong.Crush.2017.P.WEB-DL.72Op_KOSHARA.mkv
Формат : Matroska
Версия формата : Version 2
Размер файла : 3,30 Гбайт
Продолжительность : 1 ч. 29 м.
Режим общего битрейта : Переменный
Общий поток : 5308 Кбит/сек
Дата кодирования : UTC 2018-06-27 14:36:00
Программа кодирования : mkvmerge v8.3.0 ('Over the Horizon') 64bit
Библиотека кодирования : libebml v1.3.1 + libmatroska v1.4.2

Видео
Идентификатор : 1
Формат : AVC
Формат/Информация : Advanced Video Codec
Профиль формата : High@L4.1
Параметр CABAC формата : Да
Параметр RefFrames формата : 4 кадра
Идентификатор кодека : V_MPEG4/ISO/AVC
Продолжительность : 1 ч. 29 м.
Вид битрейта : Переменный
Битрейт : 4922 Кбит/сек
Максимальный битрейт : 5500 Кбит/сек
Ширина : 1280 пикселей
Высота : 720 пикселей
Соотношение сторон : 16:9
Режим частоты кадров : Постоянный
Частота кадров : 23,976 (24000/1001) кадра/сек
Стандарт вещания : Component
Цветовое пространство : YUV
Субдискретизация насыщенности : 4:2:0
Битовая глубина : 8 бит
Тип развёртки : Прогрессивная
Бит/(Пиксели*Кадры) : 0.218
Размер потока : 3,00 Гбайт (91%)
Default : Да
Forced : Нет
Цветовой диапазон : Limited
Основные цвета : BT.709
Характеристики трансфера : BT.709
Коэффициенты матрицы : BT.709

Аудио
Идентификатор : 2
Формат : AC-3
Формат/Информация : Audio Coding 3
Расширение режима : CM (complete main)
Параметр Endianness формата : Big
Идентификатор кодека : A_AC3
Продолжительность : 1 ч. 29 м.
Вид битрейта : Постоянный
Битрейт : 384 Кбит/сек
Каналы : 2 канала
Расположение каналов : Front: L R
Частота : 48,0 КГц
Частота кадров : 31,250 кадров/сек (1536 spf)
Метод сжатия : С потерями
Размер потока : 244 Мбайт (7%)
Default : Да
Forced : Нет

pb.wtf



Скачать Не на ту запал через торрент http://img11.lostpic.net/2018/06/28/7c24ca1115d4ec2349c898125243f786.jpg Скачать фильм Не на ту запал через торрент бесплантно в хорошем качестве Описание: Звезде школы, спортсменке и просто красавице Амелии начинает докучать новый поклонник, который недавно перевелся в ее школу. ... 10 10 2
Торрент: Зарегистрирован [2018-06-28 15:58] · скачан: 30 раз
Статус: T временная
Размер: 3.3 GB
Как cкачать? Как скачать Не на ту запал через торрент | qTorrent

% Раздел Тема Автор DL S | L
T Фильмы (мультфильмы) cо спонсором показа (Новинки AVI/MKV) [ 1.37 GB ] Не на ту запал / The Wrong Crush [2017 WEB-DLRip] MVO ["Синема УС"] bober100 Скачать
1 | 0

28-11-2019 20:33  

Отключить всю рекламу на сайте

29-06-2018 08:19 Не на ту запал Скачать торрент  

эмм... если верить кинопоиску... Виктория Конефель, которая играет звезду школы, впервые снялась аж в 1965 году! даже если предположить что она играла там грудничка, то ей сейчас 53 ГОДА!! в 53 играть школьницу..pb.wtf



    Дорогой пользователь! Огромная просьба, поблагодарите релизера, оцените раздачу и оставьте свои комментарий, если Вы скачали Не на ту запал через торрент бесплатно! Внесите свою лепту в развитие PiratBit!
    Комментировать посты могут только пользователи прошедшие не сложную регистрацию
    Показать сообщения:    

    Не на ту запал через торрент
    Скачать бесплатно Не на ту запал
    Не на ту запал скачать торрент
    Не на ту запал смотреть онлайн
    Cкачать фильм Не на ту запал бесплатно
    Не на ту запал скачать торрент в хорошем качестве
    Не на ту запал смотреть онлайн бесплатно в хорошем качестве


    Вы не можете начинать темы
    Вы не можете отвечать на сообщения
    Вы не можете редактировать свои сообщения
    Вы не можете удалять свои сообщения
    Вы не можете голосовать в опросах
    Вы не можете прикреплять файлы к сообщениям
    Вы можете скачивать файлы