Ссылка на приватное зеркало всего за 1$. Внимание количество ограничено!!!

OK

1+1

iTunes

мы

OK

1

WEB-DLRip

Джокер

Пифагор

Ведьмак / The Witcher сериал

iTunes

ПШазам

ОК

Оно 2

iTunes

30
pack

Вам бонус

ВАЖНО

!!Акция!!

Alien_RageХит недели

RePack

Resident Evil 21

ИГРА 18+

pack

RePack

jed

RePack

fifa19

RePack

Assassins Creed: Odyssey

RePack

NEED FOR SPEED™ PAYBACK

4 сезон

9 сезон

Бесстыжие 9 сезон

Все сериалы

все сериалы на PB.wtf

RePack

FAR CRY 5
  

В Божье время / In God's Time / The Wristwatch (Девин Дж. Дилмор, Джино Гаэтано) [2017, драма, WEB-DL 720p] MVO ["Синема УС"] pb.wtf

В Божье время через торрент pb.wtf

Размер: 2.92 GB | Добавлен: 1 год 7 мес. назад | Торрент скачан:10 раз
Скачать  

28-06-2018 16:17 В Божье время Скачать торрент  

В Божье время / In God's Time / The WristwatchГод выпуска: 2017
Страна: США
Жанр: драма
Продолжительность: 01:27:35
Перевод: Любительский (многоголосый) | "Синема УС"
Субтитры: отсутствуют

Режиссер: Девин Дж. Дилмор, Джино Гаэтано

rating

В ролях:

Кортни Палм, Тонита Кастро, Шанна Ломейстер, Роберт Питерс, Рода Пелл, Билл Портер, Кристиан Кэллоуэй, Шила Тьеле, Пэт Фитц, Келси С. Магел

Описание:

Агрессивный бездомный, отлученный от дочери, солдат, который уходит в самоволку после самоубийства брата, беременная женщина и врач, чья жена умирает от рака,- жизни четырех потерянных людей переплетаются в, казалось бы, безнадежное время.

Качество: WEB-DL 720p
Формат: MKV

Видео: h.264, 4 383 kb/s, 1280x720
Аудио#1: Русский, (AC3, 2 ch, 384 Кбит/с)
скриншот  скриншот  скриншот  

Общее
Уникальный идентификатор : 219666621098817198408423773022718751468 (0xA542409911D571809D2B464F7CAB72EC)
Полное имя : D:\In.Gods.Time.2017.P.WEB-DL.72Op_KOSHARA.mkv
Формат : Matroska
Версия формата : Version 2
Размер файла : 2,92 Гбайт
Продолжительность : 1 ч. 27 м.
Режим общего битрейта : Переменный
Общий поток : 4768 Кбит/сек
Дата кодирования : UTC 2018-06-27 14:42:26
Программа кодирования : mkvmerge v8.3.0 ('Over the Horizon') 64bit
Библиотека кодирования : libebml v1.3.1 + libmatroska v1.4.2

Видео
Идентификатор : 1
Формат : AVC
Формат/Информация : Advanced Video Codec
Профиль формата : High@L4.1
Параметр CABAC формата : Да
Параметр RefFrames формата : 4 кадра
Идентификатор кодека : V_MPEG4/ISO/AVC
Продолжительность : 1 ч. 27 м.
Вид битрейта : Переменный
Битрейт : 4383 Кбит/сек
Максимальный битрейт : 5000 Кбит/сек
Ширина : 1280 пикселей
Высота : 720 пикселей
Соотношение сторон : 16:9
Режим частоты кадров : Постоянный
Частота кадров : 23,976 (24000/1001) кадра/сек
Стандарт вещания : Component
Цветовое пространство : YUV
Субдискретизация насыщенности : 4:2:0
Битовая глубина : 8 бит
Тип развёртки : Прогрессивная
Бит/(Пиксели*Кадры) : 0.194
Размер потока : 2,62 Гбайт (90%)
Default : Да
Forced : Нет
Цветовой диапазон : Limited
Основные цвета : BT.709
Характеристики трансфера : BT.709
Коэффициенты матрицы : BT.709

Аудио
Идентификатор : 2
Формат : AC-3
Формат/Информация : Audio Coding 3
Расширение режима : CM (complete main)
Параметр Endianness формата : Big
Идентификатор кодека : A_AC3
Продолжительность : 1 ч. 27 м.
Вид битрейта : Постоянный
Битрейт : 384 Кбит/сек
Каналы : 2 канала
Расположение каналов : Front: L R
Частота : 48,0 КГц
Частота кадров : 31,250 кадров/сек (1536 spf)
Метод сжатия : С потерями
Размер потока : 241 Мбайт (8%)
Default : Да
Forced : Нет

pb.wtf



Скачать В Божье время через торрент http://img11.lostpic.net/2018/06/28/60368e15da10ac5e145c31844e4a4df0.jpg Скачать фильм В Божье время через торрент бесплантно в хорошем качестве Описание: Агрессивный бездомный, отлученный от дочери, солдат, который уходит в самоволку после самоубийства брата, беременная женщина и ... 10 10 2
Торрент: Зарегистрирован [2018-06-28 16:17] · скачан: 10 раз
Статус: T временная
Размер: 2.92 GB
Как cкачать? Как скачать В Божье время через торрент | qTorrent

28-11-2019 20:33  

Отключить всю рекламу на сайте

    Дорогой пользователь! Огромная просьба, поблагодарите релизера, оцените раздачу и оставьте свои комментарий, если Вы скачали В Божье время через торрент бесплатно! Внесите свою лепту в развитие PiratBit!
    Комментировать посты могут только пользователи прошедшие не сложную регистрацию
    Показать сообщения:    

    В Божье время через торрент
    Скачать бесплатно В Божье время
    В Божье время скачать торрент
    В Божье время смотреть онлайн
    Cкачать фильм В Божье время бесплатно
    В Божье время скачать торрент в хорошем качестве
    В Божье время смотреть онлайн бесплатно в хорошем качестве


    Вы не можете начинать темы
    Вы не можете отвечать на сообщения
    Вы не можете редактировать свои сообщения
    Вы не можете удалять свои сообщения
    Вы не можете голосовать в опросах
    Вы не можете прикреплять файлы к сообщениям
    Вы можете скачивать файлы