новый адрес
Ссылка на приватное зеркало всего за 1$. Внимание количество ограничено!!!

iTunes

1+1

iTunes

мы

WEB-DL

1

iTunes

Чернобыль

iTunes

Ральф против интернета

Лицензия

ПШазам

Лицензия

Оно 2

Лицензия

30
pack

Вам бонус

ВАЖНО

!!Акция!!

Alien_RageХит недели

RePack

Resident Evil 21

ИГРА 18+

pack

RePack

jed

!!Акция!!

Alien_Rage

RePack

fifa19

RePack

Assassins Creed: Odyssey

RePack

NEED FOR SPEED™ PAYBACK

3 сезон

9 сезон

Бесстыжие 9 сезон

Все сериалы

все сериалы на PB.wtf

RePack

FAR CRY 5
Ребята, катастрофически не хватает 1900р. для оплаты серверов за Октябрь (всвязи с блокировками трафик упал в 3 раза), 1-2р., выручайте.
  

Точка невозврата / High Wire Act (Брэд Андерсон) [2018, триллер, драма, BDRip-AVC] DUB [iTunes] pb.wtf

Точка невозврата через торрент pb.wtf

Раздают: 4 [ 0 KB/s ]
Размер: 1.41 GB | Добавлен: 1 год 5 мес. назад | Торрент скачан:1042 раза
Скачать  

28-06-2018 18:09 Точка невозврата Скачать торрент  

Точка невозврата / High Wire Act
Год выпуска: 2018
Страна: США
Жанр: триллер, драма
Продолжительность: 01:49:45
Перевод: Дублированный | iTunes
Субтитры: Английские

Режиссер: Брэд Андерсон

rating

В ролях:

Розамунд Пайк, Джон Хэмм, Марк Пеллегрино, Дин Норрис, Шей Уигэм, Джонатан Койн, Дуглас Ходж, Лейла Бехти, Кейт Флитвуд, Алон Абутбул

Описание:

Разгар Ливанской войны. Интриги, предательство, грязные компроматы, нравственное падение, жертвенность и любовь, боль и надежда… На руках героя умирает жена, подстреленная террористами. Через десять лет он, преодолев ненависть и отчаяние, возвращается в Бейрут, чтобы вызволить из плена давнего друга, захваченного в плен боевиками.

Качество: BDRip-AVC
Формат: MKV

Видео: 720x304 (2.35:1), 23,976 fps, x264 ~1 455 kbps avg, 0.277 bit/pixel
Аудио: 48 kHz, AC3 Dolby Digital, 3/2 (L,C,R,l,r) + LFE ch, ~384.00 kbps avg | RUS (iTunes)
скриншот   скриншот   скриншот   скриншот  

Общее
Уникальный идентификатор : 216794616543951428362401980202642708301 (0xA3191FD743307D78B3DF55D7672A174D)
Полное имя : E:\OlLanDGroup\High Wire Act.(Beirut).2018.BDRip(AVC).OlLanDGroup.mkv
Формат : Matroska
Версия формата : Version 4 / Version 2
Размер файла : 1,41 Гбайт
Продолжительность : 1 ч. 49 м.
Общий поток : 1838 Кбит/сек
Название фильма : High Wire Act.(Beirut).2018 #TorpedoUK#
Дата кодирования : UTC 2018-06-28 16:23:41
Программа кодирования : mkvmerge v8.3.0 ('Over the Horizon') 64bit
Библиотека кодирования : libebml v1.3.1 + libmatroska v1.4.2

Видео
Идентификатор : 1
Формат : AVC
Формат/Информация : Advanced Video Codec
Профиль формата : High@L4.1
Параметр CABAC формата : Да
Параметр ReFrames формата : 10 кадров
Идентификатор кодека : V_MPEG4/ISO/AVC
Продолжительность : 1 ч. 49 м.
Битрейт : 1455 Кбит/сек
Ширина : 720 пикселей
Высота : 304 пикселя
Соотношение сторон : 2,35:1
Режим частоты кадров : Постоянный
Частота кадров : 23,976 (24000/1001) кадра/сек
Цветовое пространство : YUV
Субдискретизация насыщенности : 4:2:0
Битовая глубина : 8 бит
Тип развёртки : Прогрессивная
Бит/(Пиксели*Кадры) : 0.277
Размер потока : 1,11 Гбайт (79%)
Библиотека кодирования : x264 core 146 r2538 121396c
Настройки программы : cabac=1 / ref=10 / deblock=1:-3:-3 / analyse=0x3:0x113 / me=umh / subme=11 / psy=1 / psy_rd=0.99:0.04 / mixed_ref=1 / me_range=48 / chroma_me=1 / trellis=2 / 8x8dct=1 / cqm=0 / deadzone=21,11 / fast_pskip=1 / chroma_qp_offset=-3 / threads=6 / lookahead_threads=1 / sliced_threads=0 / nr=0 / decimate=1 / interlaced=0 / bluray_compat=0 / constrained_intra=0 / bframes=10 / b_pyramid=2 / b_adapt=2 / b_bias=0 / direct=3 / weightb=1 / open_gop=0 / weightp=2 / keyint=240 / keyint_min=23 / scenecut=40 / intra_refresh=0 / rc_lookahead=40 / rc=2pass / mbtree=1 / bitrate=1455 / ratetol=1.0 / qcomp=0.60 / qpmin=0 / qpmax=69 / qpstep=4 / cplxblur=20.0 / qblur=0.5 / vbv_maxrate=50000 / vbv_bufsize=62500 / nal_hrd=none / filler=0 / ip_ratio=1.40 / aq=1:1.00
Default : Да
Forced : Нет

Аудио
Идентификатор : 2
Формат : AC-3
Формат/Информация : Audio Coding 3
Расширение режима : CM (complete main)
Параметр Endianness формата : Big
Идентификатор кодека : A_AC3
Продолжительность : 1 ч. 49 м.
Вид битрейта : Постоянный
Битрейт : 384 Кбит/сек
Каналы : 6 каналов
Расположение каналов : Front: L C R, Side: L R, LFE
Частота : 48,0 КГц
Частота кадров : 31,250 кадров/сек (1536 spf)
Битовая глубина : 16 бит
Метод сжатия : С потерями
Размер потока : 301 Мбайт (21%)
Заголовок : Dub | DD 5.1 @ 384 kbps - iTunes
Язык : Russian
Default : Да
Forced : Да

Текст #1
Идентификатор : 3
Формат : UTF-8
Идентификатор кодека : S_TEXT/UTF8
Идентификатор кодека/Информация : UTF-8 Plain Text
Продолжительность : 1 ч. 44 м.
Битрейт : 71 бит/сек
Count of elements : 1582
Размер потока : 54,8 Кбайт (0%)
Заголовок : Full
Язык : English
Default : Нет
Forced : Нет

Текст #2
Идентификатор : 4
Формат : UTF-8
Идентификатор кодека : S_TEXT/UTF8
Идентификатор кодека/Информация : UTF-8 Plain Text
Продолжительность : 1 ч. 44 м.
Битрейт : 80 бит/сек
Count of elements : 1685
Размер потока : 61,2 Кбайт (0%)
Заголовок : SDH
Язык : English
Default : Нет
Forced : Нет

Меню
00:00:00.000 : :1
00:09:49.798 : :2
00:21:31.666 : :3
00:34:19.141 : :4
00:44:03.934 : :5
00:58:29.174 : :6
01:11:17.192 : :7
01:21:53.745 : :8
01:32:33.968 : :9

pb.wtf



Скачать Точка невозврата через торрент http://img11.lostpic.net/2018/06/28/539fec8eee32c7af0f74b401775d880b.jpg Скачать фильм Точка невозврата через торрент бесплантно в хорошем качестве Описание: Разгар Ливанской войны. Интриги, предательство, грязные компроматы, нравственное падение, жертвенность и любовь, боль и надежда… ... 9.3 10 16
Info! Золотая раздача, скачанное не засчитывается.
Торрент: Зарегистрирован [2018-06-28 18:09] · скачан: 1 042 раз
Статус: √ проверено
Размер: 1.41 GB
Как cкачать? Как скачать Точка невозврата через торрент | qTorrent

% Раздел Тема Автор DL S | L
Фильмы [HD 720p, 1080p] (Хороший звук DUB, MVO) [ 12.89 GB ] Точка невозврата / High Wire Act / Beirut [2018 BDRip 1080p] DUB [ R5] bober100 Скачать
1 | 0
Фильмы 2018 [DVDrip, WEB-DLRip, HDrip] (DUB, MVO) [ 2.09 GB ] Точка невозврата / High Wire Act [2018 BDRip-AVC] [] - ExKinoRay Enigma2010 Скачать
1 | 0
Фильмы 2018 [DVDrip, WEB-DLRip, HDrip] (DUB, MVO) [ 745 MB ] Точка невозврата / High Wire Act / Beirut [2018 HDRip] DUB [ R5] bober100 Скачать
1 | 0
Фильмы 2018 [DVDrip, WEB-DLRip, HDrip] (DUB, MVO) [ 1.46 GB ] Точка невозврата / High Wire Act / Beirut [2018 BDRip] DUB [ R5] bober100 Скачать
2 | 0
Фильмы [HD 720p, 1080p] (Хороший звук DUB, MVO) [ 5.01 GB ] Точка невозврата / High Wire Act / Beirut [2018 BDRip 720p] DUB [ R5] bober100 Скачать
1 | 0
Фильмы (Blu-ray, BD-Remux, HDDVD) [ 29.89 GB ] Точка невозврата / High Wire Act / Beirut [2018 BD Remux 1080p] DUB [ R5] bober100 Скачать
1 | 0
Фильмы 2018 [DVDrip, WEB-DLRip, HDrip] (DUB, MVO) [ 2.18 GB ] Точка невозврата / High Wire Act [2018 BDRip] - [] Twi7ter Скачать
3 | 0

28-11-2019 20:33  

Отключить всю рекламу на сайте

29-06-2018 21:56 Точка невозврата Скачать торрент  

хороший типа шпионский детекттивный триллер. любителям такой темы этот фильм понравится. довольно динамичный, но до Борна не дотягивает. в общем норм кино!pb.wtf



    Дорогой пользователь! Огромная просьба, поблагодарите релизера, оцените раздачу и оставьте свои комментарий, если Вы скачали Точка невозврата через торрент бесплатно! Внесите свою лепту в развитие PiratBit!
    Комментировать посты могут только пользователи прошедшие не сложную регистрацию
    Показать сообщения:    

    Точка невозврата через торрент
    Скачать бесплатно Точка невозврата
    Точка невозврата скачать торрент
    Точка невозврата смотреть онлайн
    Cкачать фильм Точка невозврата бесплатно
    Точка невозврата скачать торрент в хорошем качестве
    Точка невозврата смотреть онлайн бесплатно в хорошем качестве


    Вы не можете начинать темы
    Вы не можете отвечать на сообщения
    Вы не можете редактировать свои сообщения
    Вы не можете удалять свои сообщения
    Вы не можете голосовать в опросах
    Вы не можете прикреплять файлы к сообщениям
    Вы можете скачивать файлы