Всегда рабочее зеркало без VPN и Proxy просто перед .vidak.icu напиши любое слово или цифру, Пример http://uj93.vidak.icu

MVO

Лицензия

1 сезон

1

1 сезон

iTunes

1 сезон

13

1 сезон

Deluxe

pack

Рекомендуем

Пиратка

30

ВАЖНО

RePack

MK11

RePack

jed

RePack

fifa19

RePack

RDR2

RePack

NEED FOR SPEED™ PAYBACK

Кинопоиск HD

6 сезон

 Острые козырьки 6 сезон

Все сериалы

все сериалы на PB.wtf

RePack

FAR CRY 5
  
Magnet ссылка

Павел, апостол Христа / Paul, Apostle of Christ (Эндрю Хайатт) [2018, драма, история, BDRip 1080p] DUB [Лицензия] pb.wtf

Павел, апостол Христа через торрент pb.wtf

Размер: 7.95 GB | Добавлен: 4 года назад | Торрент скачан:226 раз
Смотреть онлайн Павел, апостол Христа | Скачать    Ребята, помогите собрать деньги на оплату серверов!!!

28-06-2018 19:26 Павел, апостол Христа Скачать торрент  

Павел, апостол Христа / Paul, Apostle of Christ
Год выпуска: 2018
Страна: США
Жанр: драма, история
Продолжительность: 01:47:46
Перевод: Профессиональный (многоголосый) | Лицензия
Субтитры: Русские (full), английские

Режиссер: Эндрю Хайатт

rating

В ролях:

Джеймс Кэвизел, Джеймс Фолкнер, Оливье Мартинес, Джоэнн Уэлли, Джон Линч, Гиоргос Карамихос, Антония Кэмпбелл-Хьюджес, Алессандро Спердути, Александра Вино, Мануэль Коши

Описание:

История жизни и смерти апостола Павла, который прошёл путь от беспощадного гонителя христиан до одного из основателей христианской церкви. Его последнее миссионерское путешествие заканчивается в тюрьме, куда он был заточён по приказу римского императора Нерона. Пока плененный Павел ждёт казни и размышляет о своей посмертной участи, его последователь Лука пишет новое Евангелие.

Качество: BDRip 1080p
Формат: MKV

Видео: MPEG-4 AVC, 1920x804, 8426 Kbit/s, 23.976 fps
Аудио#1: 48 kHz, AC3, 5.1, 640 Kbps | Лицензия | RUS |
Аудио#2: 48 kHz, DTS, 5.1, 1510 Kbps | Оригинал | ENG |
скриншот   скриншот   скриншот   скриншот   скриншот  

General
Unique ID : 215787225782278871546234681083974644944 (0xA2571BA44077EC67FAE27DC11177F4D0)
Complete name : D:Video111Paul.Apostle.of.Christ.2018.BDRip.1080p.ExKinoRay.mkv
Format : Matroska
Format version : Version 4 / Version 2
File size : 7.95 GiB
Duration : 1 h 47 min
Overall bit rate : 10.6 Mb/s
Movie name : Paul Apostle of Christ 2018 from ExKinoRay
Encoded date : UTC 2018-06-28 18:12:22
Writing application : mkvmerge v23.0.0 ('The Bride Said No') 64-bit
Writing library : libebml v1.3.6 + libmatroska v1.4.9

Video
ID : 1
Format : AVC
Format/Info : Advanced Video Codec
Format profile : High@L4.1
Format settings : CABAC / 5 Ref Frames
Format settings, CABAC : Yes
Format settings, ReFrames : 5 frames
Codec ID : V_MPEG4/ISO/AVC
Duration : 1 h 47 min
Bit rate : 8 426 kb/s
Width : 1 920 pixels
Height : 804 pixels
Display aspect ratio : 2.40:1
Frame rate mode : Constant
Frame rate : 23.976 (24000/1001) FPS
Color space : YUV
Chroma subsampling : 4:2:0
Bit depth : 8 bits
Scan type : Progressive
Bits/(Pixel*Frame) : 0.228
Stream size : 6.33 GiB (80%)
Writing library : x264 core 155 r2901 7d0ff22
Encoding settings : cabac=1 / ref=5 / deblock=1:-3:-3 / analyse=0x3:0x113 / me=umh / subme=10 / psy=1 / psy_rd=1.05:0.10 / mixed_ref=1 / me_range=48 / chroma_me=1 / trellis=2 / 8x8dct=1 / cqm=0 / deadzone=21,11 / fast_pskip=0 / chroma_qp_offset=-2 / threads=12 / lookahead_threads=1 / sliced_threads=0 / nr=0 / decimate=1 / interlaced=0 / bluray_compat=0 / constrained_intra=0 / bframes=6 / b_pyramid=2 / b_adapt=2 / b_bias=0 / direct=3 / weightb=1 / open_gop=0 / weightp=2 / keyint=250 / keyint_min=23 / scenecut=40 / intra_refresh=0 / rc=2pass / mbtree=0 / bitrate=8426 / ratetol=2.0 / qcomp=0.70 / qpmin=0 / qpmax=69 / qpstep=4 / cplxblur=20.0 / qblur=0.5 / ip_ratio=1.40 / pb_ratio=1.30 / aq=3:1.00
Language : English
Default : Yes
Forced : No

Audio #1
ID : 2
Format : AC-3
Format/Info : Audio Coding 3
Codec ID : A_AC3
Duration : 1 h 47 min
Bit rate mode : Constant
Bit rate : 640 kb/s
Channel(s) : 6 channels
Channel positions : Front: L C R, Side: L R, LFE
Sampling rate : 48.0 kHz
Frame rate : 31.250 FPS (1536 SPF)
Bit depth : 16 bits
Compression mode : Lossy
Stream size : 493 MiB (6%)
Title : Lic
Language : Russian
Service kind : Complete Main
Default : Yes
Forced : Yes

Audio #2
ID : 3
Format : DTS
Format/Info : Digital Theater Systems
Codec ID : A_DTS
Duration : 1 h 47 min
Bit rate mode : Constant
Bit rate : 1 509 kb/s
Channel(s) : 6 channels
Channel positions : Front: L C R, Side: L R, LFE
Sampling rate : 48.0 kHz
Frame rate : 93.750 FPS (512 SPF)
Bit depth : 16 bits
Compression mode : Lossy
Stream size : 1.14 GiB (14%)
Title : Original
Language : English
Default : No
Forced : No

Text #1
ID : 4
Format : UTF-8
Codec ID : S_TEXT/UTF8
Codec ID/Info : UTF-8 Plain Text
Duration : 1 h 46 min
Bit rate : 87 b/s
Count of elements : 1298
Stream size : 68.2 KiB (0%)
Title : Full
Language : Russian
Default : No
Forced : No

Text #2
ID : 5
Format : UTF-8
Codec ID : S_TEXT/UTF8
Codec ID/Info : UTF-8 Plain Text
Duration : 1 h 37 min
Bit rate : 57 b/s
Count of elements : 1268
Stream size : 40.9 KiB (0%)
Title : Full
Language : English
Default : No
Forced : No

Menu
00:00:00.000 : en:Chapter 1
00:07:58.436 : en:Chapter 2
00:14:52.100 : en:Chapter 3
00:22:26.136 : en:Chapter 4
00:29:26.181 : en:Chapter 5
00:36:19.302 : en:Chapter 6
00:40:36.184 : en:Chapter 7
00:46:59.525 : en:Chapter 8
00:52:04.455 : en:Chapter 9
00:55:47.553 : en:Chapter 10
01:00:38.176 : en:Chapter 11
01:08:15.591 : en:Chapter 12
01:19:16.001 : en:Chapter 13
01:24:19.429 : en:Chapter 14
01:28:38.605 : en:Chapter 15
01:34:40.008 : en:Chapter 16

pb.wtf



Скачать Павел, апостол Христа через торрент https://pic1.kartinco.top/images/11/ijyqi.jpg Скачать, смотреть онлайн Павел, апостол Христа бесплантно в хорошем качестве Описание: История жизни и смерти апостола Павла, который прошёл путь от беспощадного гонителя христиан до одного из основателей ... 10 10 9
Info! Золотая раздача, скачанное не засчитывается.
Торрент: Зарегистрирован [2018-06-28 19:26] · скачан: 226 раз
Статус: √ проверено
Размер: 7.95 GB
Как cкачать? Как скачать Павел, апостол Христа через торрент | UTorrent

% Раздел Тема Автор DL S | L
Фильмы 2018 [DVDrip, WEB-DLRip, HDrip] (DUB, MVO) [ 1.46 GB ] Павел апостол Христа / Paul Apostle of Christ [2018 история BDRip] - [] Twi7ter Скачать
1 | 0
Фильмы [HD 720p, 1080p] (Хороший звук DUB, MVO) [ 5.28 GB ] Павел апостол Христа / Paul Apostle of Christ [2018 история BDRip-HEVC 1080p ] MVO [] bober100 Скачать
1 | 0
Фильмы 2018 [DVDrip, WEB-DLRip, HDrip] (DUB, MVO) [ 1.91 GB ] Павел апостол Христа / Paul Apostle of Christ [2018 история BDRip-AVC] DUB [] bober100 Скачать
1 | 0
Фильмы (Blu-ray, BD-Remux, HDDVD) [ 30.38 GB ] Павел апостол Христа / Paul Apostle of Christ [2018 история Blu-ray 1080p] DUB [] bober100 Скачать
1 | 0
Фильмы (Blu-ray, BD-Remux, HDDVD) [ 20.82 GB ] Павел апостол Христа / Paul Apostle of Christ [2018 история BD Remux 1080p] DUB [] bober100 Скачать
1 | 0
Фильмы 2018 [DVDrip, WEB-DLRip, HDrip] (DUB, MVO) [ 1.46 GB ] Павел апостол Христа / Paul Apostle of Christ [2018 история BDRip] DUB [ Blu-ray EUR] bober100 Скачать
1 | 0

28-11-2019 20:33  

Отключить всю рекламу на сайте

    Дорогой пользователь! Огромная просьба, поблагодарите релизера, оцените раздачу и оставьте свои комментарий, если Вы скачали Павел, апостол Христа через торрент бесплатно!
    Комментировать посты могут только пользователи прошедшие не сложную регистрацию
    Показать сообщения:    

    Павел, апостол Христа через торрент
    Скачать бесплатно Павел, апостол Христа
    Павел, апостол Христа скачать торрент
    Павел, апостол Христа смотреть онлайн
    Cкачать фильм Павел, апостол Христа бесплатно
    Павел, апостол Христа скачать торрент в хорошем качестве
    Павел, апостол Христа смотреть онлайн бесплатно в хорошем качестве


    Вы не можете начинать темы
    Вы не можете отвечать на сообщения
    Вы не можете редактировать свои сообщения
    Вы не можете удалять свои сообщения
    Вы не можете голосовать в опросах
    Вы не можете прикреплять файлы к сообщениям
    Вы можете скачивать файлы