Ссылка на приватное зеркало всего за 1$. Внимание количество ограничено!!!

iTunes

iTunes

iTunes

1

iTunes

iTunes

iTunes

WEBRip

iTunes

30
pack

$ от Little Big

ВАЖНО

!!Акция!!

Alien_RageХит недели

RePack

Resident Evil 21

ИГРА 18+

pack

RePack

jed

!!Акция!!

Alien_Rage

RePack

fifa19

RePack

Assassins Creed: Odyssey

RePack

NEED FOR SPEED™ PAYBACK

4 сезон

9 сезон

Бесстыжие 9 сезон

Все сериалы

все сериалы на PB.wtf

RePack

FAR CRY 5
  

Он снова здесь / Er ist wieder da (Давид Внендт) [2015, фэнтези, комедия, BDRip 720p] MVO ["Синема УС"] pb.wtf

Он снова здесь через торрент pb.wtf

Раздают: 1 [ 0 KB/s ]
Размер: 5.4 GB | Добавлен: 2 года 1 мес. назад | Торрент скачан:72 раза
Скачать  

29-06-2018 15:14 Он снова здесь Скачать торрент  

Он снова здесь / Er ist wieder daГод выпуска: 2015
Страна: Германия
Жанр: фэнтези, комедия
Продолжительность: 01:57:44
Перевод: Любительский (многоголосый) | "Синема УС"
Субтитры: отсутствуют

Режиссер: Давид Внендт

rating

В ролях:

Оливер Мазуччи, Фабиан Буш, Кристоф Мария Хербст, Катя Риман, Франциска Вульф, Ларс Рудольф, Михаэль Кесслер, Даниэль Аминати, Даги Би, Фред Аарон Блаке

Описание:

Берлин, наши дни. На заброшенном пустыре возвращается к жизни черный кошмар XX века - Адольф Гитлер, кровавый диктатор, погрузивший Германию, а за нею и половину человечества в ужас Второй мировой войны, непосредственный виновник десятков миллионов смертей. Ни власти, ни сторонников, ни жилья, ни денег у него теперь нет, но есть опыт восхождения со дна на вершины и твердая вера в победу национал-социализма. Неподготовленный мир принимает бывшего диктатора за гениального актера, его гневные речи взрывают интернет, и... Гитлер второй раз в жизни обретает статус суперзвезды. Чем же это обернется в наше время?

Качество: BDRip 720p
Формат: MKV

Видео: h.264, 6 116 kb/s, 1280x696
Аудио#1: Русский, (AC3, 2 ch, 448 Кбит/с)
скриншот  скриншот  скриншот  

Общее
Уникальный идентификатор : 181163240751697890923379082669733678807 (0x884AC561797916568D8340446CC78ED7)
Полное имя : D:\Er.Ist.Wieder.Da.2015.P.BDRip.72Op_KOSHARA.mkv
Формат : Matroska
Версия формата : Version 2
Размер файла : 5,40 Гбайт
Продолжительность : 1 ч. 57 м.
Режим общего битрейта : Переменный
Общий поток : 6566 Кбит/сек
Дата кодирования : UTC 2018-06-29 11:04:33
Программа кодирования : mkvmerge v8.3.0 ('Over the Horizon') 64bit
Библиотека кодирования : libebml v1.3.1 + libmatroska v1.4.2

Видео
Идентификатор : 1
Формат : AVC
Формат/Информация : Advanced Video Codec
Профиль формата : High@L4.1
Параметр CABAC формата : Да
Параметр RefFrames формата : 4 кадра
Идентификатор кодека : V_MPEG4/ISO/AVC
Продолжительность : 1 ч. 57 м.
Вид битрейта : Переменный
Битрейт : 6116 Кбит/сек
Максимальный битрейт : 6900 Кбит/сек
Ширина : 1280 пикселей
Высота : 696 пикселей
Соотношение сторон : 1,85:1
Режим частоты кадров : Постоянный
Частота кадров : 23,976 (24000/1001) кадра/сек
Стандарт вещания : Component
Цветовое пространство : YUV
Субдискретизация насыщенности : 4:2:0
Битовая глубина : 8 бит
Тип развёртки : Прогрессивная
Бит/(Пиксели*Кадры) : 0.280
Размер потока : 4,92 Гбайт (91%)
Default : Да
Forced : Нет
Цветовой диапазон : Limited
Основные цвета : BT.709
Характеристики трансфера : BT.709
Коэффициенты матрицы : BT.709

Аудио
Идентификатор : 2
Формат : AC-3
Формат/Информация : Audio Coding 3
Расширение режима : CM (complete main)
Параметр Endianness формата : Big
Идентификатор кодека : A_AC3
Продолжительность : 1 ч. 57 м.
Вид битрейта : Постоянный
Битрейт : 448 Кбит/сек
Каналы : 2 канала
Расположение каналов : Front: L R
Частота : 48,0 КГц
Частота кадров : 31,250 кадров/сек (1536 spf)
Метод сжатия : С потерями
Размер потока : 377 Мбайт (7%)
Default : Да
Forced : Нет

pb.wtf



Скачать Он снова здесь через торрент http://img11.lostpic.net/2018/06/29/101b123cfa5cedfae780cde910bb6422.jpg Скачать фильм Он снова здесь через торрент бесплантно в хорошем качестве Описание: Берлин, наши дни. На заброшенном пустыре возвращается к жизни черный кошмар XX века - Адольф Гитлер, кровавый диктатор, ... 10 10 3
Торрент: Зарегистрирован [2018-06-29 15:14] · скачан: 72 раз
Статус: # сомнительно
Размер: 5.4 GB
Как cкачать? Как скачать Он снова здесь через торрент | qTorrent

% Раздел Тема Автор DL S | L
Фильмы с авторской озвучкой [ 1.46 GB ] Он снова здесь / Er ist wieder da [2015 HDRip] AVO Ворон Скачать
1 | 0
T Фильмы (мультфильмы) cо спонсором показа (Новинки AVI/MKV) [ 1.46 GB ] Он снова здесь / Er ist wieder da [2015 HDRip] MVO ["Синема УС"] bober100 Скачать
1 | 0

28-11-2019 20:33  

Отключить всю рекламу на сайте

    Дорогой пользователь! Огромная просьба, поблагодарите релизера, оцените раздачу и оставьте свои комментарий, если Вы скачали Он снова здесь через торрент бесплатно! Внесите свою лепту в развитие PiratBit!
    Комментировать посты могут только пользователи прошедшие не сложную регистрацию
    Показать сообщения:    

    Он снова здесь через торрент
    Скачать бесплатно Он снова здесь
    Он снова здесь скачать торрент
    Он снова здесь смотреть онлайн
    Cкачать фильм Он снова здесь бесплатно
    Он снова здесь скачать торрент в хорошем качестве
    Он снова здесь смотреть онлайн бесплатно в хорошем качестве


    Вы не можете начинать темы
    Вы не можете отвечать на сообщения
    Вы не можете редактировать свои сообщения
    Вы не можете удалять свои сообщения
    Вы не можете голосовать в опросах
    Вы не можете прикреплять файлы к сообщениям
    Вы можете скачивать файлы