Ссылка на приватное зеркало всего за 1$. Внимание количество ограничено!!!

OK

1+1

iTunes

мы

OK

1

WEB-DLRip

Джокер

Пифагор

Ведьмак / The Witcher сериал

iTunes

ПШазам

ОК

Оно 2

iTunes

30
pack

Вам бонус

ВАЖНО

!!Акция!!

Alien_RageХит недели

RePack

Resident Evil 21

ИГРА 18+

pack

RePack

jed

RePack

fifa19

RePack

Assassins Creed: Odyssey

RePack

NEED FOR SPEED™ PAYBACK

4 сезон

9 сезон

Бесстыжие 9 сезон

Все сериалы

все сериалы на PB.wtf

RePack

FAR CRY 5
  

Убежище / Shelter (Пол Беттани) [2014, Драма, BDRip 720p] MVO ["Синема УС"] pb.wtf

Убежище через торрент pb.wtf

Раздают: 1 [ 0 KB/s ]
Размер: 4.66 GB | Добавлен: 1 год 6 мес. назад | Торрент скачан:32 раза
Скачать  

29-06-2018 15:50 Убежище Скачать торрент  

Убежище / ShelterГод выпуска: 2014
Страна: США
Жанр: Драма
Продолжительность: 01:46:41
Перевод: Любительский (многоголосый) | "Синема УС"
Субтитры: отсутствуют

Режиссер: Пол Беттани

rating

В ролях:

Дженнифер Коннелли, Энтони Маки, Адольфо Мендес-Нуэль, Кевин Хоффман, Тедди Каньес, Стив Кирбус, Алок Тевари, Хайтем Нур, Уилсон Монтуори, Жан-Франсуа Угубийи

Описание:

Фильм расскажет историю двух бездомных, Ханны и Тахира, которые влюбляются друг в друга.

Качество: BDRip 720pФормат: MKV

Видео: h.264, 5 806 Кбит/с, 1280x720
Аудио#1: Русский (AC3, 2 ch, 448 Кбит/с)
скриншот  скриншот  скриншот  

Общее
Уникальный идентификатор : 204138985868562345472026922724726508119 (0x9993BD12EE4742DD8ED19F9B4BB58A57)
Полное имя : D:\Shelter.2014.P.BDRip.72Op.mkv
Формат : Matroska
Версия формата : Version 2
Размер файла : 4,66 Гбайт
Продолжительность : 1 ч. 46 м.
Режим общего битрейта : Переменный
Общий поток : 6255 Кбит/сек
Дата кодирования : UTC 2018-06-29 11:12:28
Программа кодирования : mkvmerge v8.3.0 ('Over the Horizon') 64bit
Библиотека кодирования : libebml v1.3.1 + libmatroska v1.4.2

Видео
Идентификатор : 1
Формат : AVC
Формат/Информация : Advanced Video Codec
Профиль формата : High@L4.1
Параметр CABAC формата : Да
Параметр RefFrames формата : 4 кадра
Идентификатор кодека : V_MPEG4/ISO/AVC
Продолжительность : 1 ч. 46 м.
Вид битрейта : Переменный
Битрейт : 5806 Кбит/сек
Максимальный битрейт : 6800 Кбит/сек
Ширина : 1280 пикселей
Высота : 720 пикселей
Соотношение сторон : 16:9
Режим частоты кадров : Постоянный
Частота кадров : 23,976 (24000/1001) кадра/сек
Стандарт вещания : Component
Цветовое пространство : YUV
Субдискретизация насыщенности : 4:2:0
Битовая глубина : 8 бит
Тип развёртки : Прогрессивная
Бит/(Пиксели*Кадры) : 0.257
Размер потока : 4,23 Гбайт (91%)
Default : Да
Forced : Нет
Цветовой диапазон : Limited
Основные цвета : BT.709
Характеристики трансфера : BT.709
Коэффициенты матрицы : BT.709

Аудио
Идентификатор : 2
Формат : AC-3
Формат/Информация : Audio Coding 3
Расширение режима : CM (complete main)
Параметр Endianness формата : Big
Идентификатор кодека : A_AC3
Продолжительность : 1 ч. 46 м.
Вид битрейта : Постоянный
Битрейт : 448 Кбит/сек
Каналы : 2 канала
Расположение каналов : Front: L R
Частота : 48,0 КГц
Частота кадров : 31,250 кадров/сек (1536 spf)
Метод сжатия : С потерями
Размер потока : 342 Мбайт (7%)
Default : Да
Forced : Нет

pb.wtf



Скачать Убежище через торрент http://img11.lostpic.net/2018/06/29/fbd9c19dcaa29d7441691cebeeebbc09.jpg Скачать фильм Убежище через торрент бесплантно в хорошем качестве Описание: Фильм расскажет историю двух бездомных, Ханны и Тахира, которые влюбляются друг в ... 10 10 2
Торрент: Зарегистрирован [2018-06-29 15:50] · скачан: 32 раз
Статус: # сомнительно
Размер: 4.66 GB
Как cкачать? Как скачать Убежище через торрент | qTorrent

% Раздел Тема Автор DL S | L
T Фильмы (мультфильмы) cо спонсором показа (Новинки AVI/MKV) [ 1.37 GB ] Убежище / Shelter [2014 HDRip] MVO ["Синема УС"] bober100 Скачать
1 | 0
Фильмы [HD 720p, 1080p] (Хороший звук DUB, MVO) [ 4.7 GB ] Убежище / Shelter [2010 BDRip 720p] diletant Скачать
1 | 2
Фильмы 2013 [DVDrip, WEB-DLRip, HDrip] [ 1.46 GB ] Подари мне убежище / Gimme Shelter [2013 HDRip MVO] GEKADOL Скачать
1 | 0
Арт-хаус и авторское кино [ 1.49 GB ] Убежище / Shelter [2010 HDRip лицензия] SD Скачать
2 | 0

28-11-2019 20:33  

Отключить всю рекламу на сайте

    Дорогой пользователь! Огромная просьба, поблагодарите релизера, оцените раздачу и оставьте свои комментарий, если Вы скачали Убежище через торрент бесплатно! Внесите свою лепту в развитие PiratBit!
    Комментировать посты могут только пользователи прошедшие не сложную регистрацию
    Показать сообщения:    

    Убежище через торрент
    Скачать бесплатно Убежище
    Убежище скачать торрент
    Убежище смотреть онлайн
    Cкачать фильм Убежище бесплатно
    Убежище скачать торрент в хорошем качестве
    Убежище смотреть онлайн бесплатно в хорошем качестве


    Вы не можете начинать темы
    Вы не можете отвечать на сообщения
    Вы не можете редактировать свои сообщения
    Вы не можете удалять свои сообщения
    Вы не можете голосовать в опросах
    Вы не можете прикреплять файлы к сообщениям
    Вы можете скачивать файлы