Ссылка на приватное зеркало всего за 1$. Внимание количество ограничено!!!

OK

1+1

iTunes

мы

OK

1

WEB-DLRip

Джокер

Пифагор

Ведьмак / The Witcher сериал

iTunes

ПШазам

ОК

Оно 2

iTunes

30
pack

Вам бонус

ВАЖНО

!!Акция!!

Alien_RageХит недели

RePack

Resident Evil 21

ИГРА 18+

pack

RePack

jed

RePack

fifa19

RePack

Assassins Creed: Odyssey

RePack

NEED FOR SPEED™ PAYBACK

4 сезон

9 сезон

Бесстыжие 9 сезон

Все сериалы

все сериалы на PB.wtf

RePack

FAR CRY 5
  

Сумерки / Rökkur / Rift (Ерлингур Тороддсен) [2017, ужасы, драма, детектив, WEB-DL 720p] MVO ["Синема УС"] pb.wtf

Сумерки через торрент pb.wtf

Размер: 4.05 GB | Добавлен: 1 год 6 мес. назад | Торрент скачан:31 раз
Скачать  

29-06-2018 16:03 Сумерки Скачать торрент  

Сумерки / Rökkur / RiftГод выпуска: 2017
Страна: Исландия
Жанр: ужасы, драма, детектив
Продолжительность: 01:53:32
Перевод: Любительский (многоголосый) | "Синема УС"
Субтитры: отсутствуют

Режиссер: Ерлингур Тороддсен

rating

В ролях:

Бьёрн Стефанссон, Сигурдор Тор Оскарссон, Гвюдмюндюр Оулафссон, Анна Ева Стейндорсдоттир, Бьёрн Оттар Стейдорсон

Описание:

Через несколько месяцев после разрыва отношений Гуннар получил странный звонок от своего бывшего бойфренда Эйнара. Гуннар отправляется в уединённую хижину посреди леса, где спрятался Эйнар, и обнаруживает, что ситуация куда более серьёзная, чем он предполагал. Пока двое мужчин пытаются уладить свои отношения, внутрь хижины пытается пробраться кто-то ещё.

Качество: WEB-DL 720p
Формат: MKV

Видео: h.264, 4727 kb/s, 1280x530
Аудио#1: Русский, (AC3, 2 ch, 384 Кбит/с)
скриншот  скриншот  скриншот  

Общее
Уникальный идентификатор : 233870999936057021453751029813266747126 (0xAFF1EA8B6E98BE418936D50A23920EF6)
Полное имя : D:\Rift.2O17.P.WEB-DL.72Op_KOSHARA.mkv
Формат : Matroska
Версия формата : Version 2
Размер файла : 4,05 Гбайт
Продолжительность : 1 ч. 53 м.
Режим общего битрейта : Переменный
Общий поток : 5113 Кбит/сек
Дата кодирования : UTC 2018-06-29 09:21:33
Программа кодирования : mkvmerge v8.3.0 ('Over the Horizon') 64bit
Библиотека кодирования : libebml v1.3.1 + libmatroska v1.4.2

Видео
Идентификатор : 1
Формат : AVC
Формат/Информация : Advanced Video Codec
Профиль формата : High@L4.1
Параметр CABAC формата : Да
Параметр RefFrames формата : 4 кадра
Идентификатор кодека : V_MPEG4/ISO/AVC
Продолжительность : 1 ч. 53 м.
Вид битрейта : Переменный
Битрейт : 4727 Кбит/сек
Максимальный битрейт : 5500 Кбит/сек
Ширина : 1280 пикселей
Высота : 530 пикселей
Соотношение сторон : 2,40:1
Режим частоты кадров : Постоянный
Частота кадров : 23,976 (24000/1001) кадра/сек
Стандарт вещания : Component
Цветовое пространство : YUV
Субдискретизация насыщенности : 4:2:0
Битовая глубина : 8 бит
Тип развёртки : Прогрессивная
Бит/(Пиксели*Кадры) : 0.284
Размер потока : 3,67 Гбайт (90%)
Default : Да
Forced : Нет
Цветовой диапазон : Limited
Основные цвета : BT.709
Характеристики трансфера : BT.709
Коэффициенты матрицы : BT.709

Аудио
Идентификатор : 2
Формат : AC-3
Формат/Информация : Audio Coding 3
Расширение режима : CM (complete main)
Параметр Endianness формата : Big
Идентификатор кодека : A_AC3
Продолжительность : 1 ч. 53 м.
Вид битрейта : Постоянный
Битрейт : 384 Кбит/сек
Каналы : 2 канала
Расположение каналов : Front: L R
Частота : 48,0 КГц
Частота кадров : 31,250 кадров/сек (1536 spf)
Метод сжатия : С потерями
Размер потока : 312 Мбайт (8%)
Default : Да
Forced : Нет

pb.wtf



Скачать Сумерки через торрент http://img11.lostpic.net/2018/06/29/ea5258eb3e2a883b40e91d1a7e13731f.jpg Скачать фильм Сумерки через торрент бесплантно в хорошем качестве Описание: Через несколько месяцев после разрыва отношений Гуннар получил странный звонок от своего бывшего бойфренда Эйнара. Гуннар ... 7.8 10 4
Торрент: Зарегистрирован [2018-06-29 16:03] · скачан: 31 раз
Статус: T временная
Размер: 4.05 GB
Как cкачать? Как скачать Сумерки через торрент | qTorrent

% Раздел Тема Автор DL S | L
T Фильмы (мультфильмы) cо спонсором показа (Новинки AVI/MKV) [ 1.45 GB ] Сумерки / Rökkur / Rift [2017 WEB-DLRip] MVO ["Синема УС"] bober100 Скачать
1 | 0

28-11-2019 20:33  

Отключить всю рекламу на сайте

29-06-2018 16:11 Сумерки Скачать торрент  

Гребаные п..ры везде.Жесть ,что творится в мире!pb.wtf



29-06-2018 16:18 Сумерки Скачать торрент  

...тьфу!!! автору спасибо за релиз!!! На нашем кинопоиске даже рейтинга нет!pb.wtf



29-06-2018 16:32 Сумерки Скачать торрент  

Очередная гомоистория про двух заднеприводных голубков и их душевные переживания? Тьфу нах! Обхожу мимо.pb.wtf



29-06-2018 17:41 Сумерки Скачать торрент  

говномесы бл............... pb.wtf



30-06-2018 20:23 Сумерки Скачать торрент  

забанить за такие релизы....pb.wtf



    Дорогой пользователь! Огромная просьба, поблагодарите релизера, оцените раздачу и оставьте свои комментарий, если Вы скачали Сумерки через торрент бесплатно! Внесите свою лепту в развитие PiratBit!
    Комментировать посты могут только пользователи прошедшие не сложную регистрацию
    Показать сообщения:    

    Сумерки через торрент
    Скачать бесплатно Сумерки
    Сумерки скачать торрент
    Сумерки смотреть онлайн
    Cкачать фильм Сумерки бесплатно
    Сумерки скачать торрент в хорошем качестве
    Сумерки смотреть онлайн бесплатно в хорошем качестве


    Вы не можете начинать темы
    Вы не можете отвечать на сообщения
    Вы не можете редактировать свои сообщения
    Вы не можете удалять свои сообщения
    Вы не можете голосовать в опросах
    Вы не можете прикреплять файлы к сообщениям
    Вы можете скачивать файлы