Ссылка на приватное зеркало нашего сайта всего за 1$. Внимание количество ограничено!!!

2 сезон

iTunes

1 сезон

1

2 сезон

2 сезон

iTunes

1 сезон

RePack

30

Новинка

ВАЖНО

ИГРА 18+

pack

RePack

MK11
pack

Забери бонус

RePack

jed

!!Акция!!

Alien_Rage

RePack

fifa19

RePack

Assassins Creed: Odyssey

RePack

NEED FOR SPEED™ PAYBACK

4 сезон

9 сезон

Бесстыжие 9 сезон

Все сериалы

все сериалы на PB.wtf

RePack

FAR CRY 5
  

Муза смерти / Muse (Жауме Балагуэро) [2017, ужасы, фантастика, триллер, BDRemux 1080p] DUB [iTunes] FRA Transfer pb.wtf

Муза смерти через торрент pb.wtf

Размер: 27.64 GB | Добавлен: 2 года 5 мес. назад | Торрент скачан:83 раза
Скачать  

29-06-2018 17:17 Муза смерти Скачать торрент  

Муза смерти / Muse

Год выпуска: 2017
Страна: Испания, Ирландия, Бельгия, Франция
Жанр: ужасы, фантастика, триллер
Продолжительность: 01:47:30
Перевод: Дублированный [iTunes]
Режиссер: Жауме Балагуэро
В ролях:

Эллиот Кауэн (Samuel Solomon), Франка Потенте (Susan Gilard), Ана Улару (Rachel), Леонор Уотлинг (Lidia Garetti), Мануэла Вельес (Beatriz), Джоэнн Уэлли (Jacqueline), Кристофер Ллойд (Bernard Rauschen), Каллахэн О’Коннелл (Donnie), Сэм Харди (Nito), Стелла МакКаскер (She Who Lies), Еннис Чун-Ян (She Who Punishes), Ив Мехер (Girl)
Описание:
Профессор литературы Самуэль Саломон год назад ушел с работы после трагической смерти подруги. Он страдает от повторяющегося ночного кошмара, в котором видит женщину, зверски убиваемую при странном ритуале. Неожиданно ту же самую женщину, которая появляется каждую ночь в его снах, находят мертвой при тех же самых обстоятельствах. Самуэль пробирается на место преступления и там встречает Рэйчел, которой тоже приснилось это убийство. Пытаясь сделать всё возможное, чтобы разгадать личность таинственной женщины, они попадут в страшный мир, которым управляют фигуры, вдохновляющие художников на протяжении веков - музы.
Рейтинг:
rating
Качество: BDRemux 1080p [FRA Transfer]
Формат: MKV
Видео: MPEG-4 AVC, ~ 34100 Мбит/с, 1920x1080
Аудио #1: AC-3, 48.0 kHz, 6 ch, 384 kb/s, CBR (Russian) | Дублированный, iTunes |
Аудио #2: DTS MA / Core, 48.0 kHz, 6 ch, 3 551 kb/s / 1 509 kb/s, VBR / CBR (English)
Аудио #3: AC-3, 48.0 kHz, 6 ch, 640 kb/s, CBR (English)
Навигация по главам: есть
General
Unique ID : 111614450563621198133721490302408432380 (0x53F829481E29CEC47D043C0DEBA59AFC)
Complete name : D:\Muse.2017.1080p.FRA.TR.BDRemux.IVA(RUS.ENG).ExKinoRay.mkv
Format : Matroska
Format version : Version 4 / Version 2
File size : 27.6 GiB
Duration : 1 h 47 min
Overall bit rate mode : Variable
Overall bit rate : 36.7 Mb/s
Movie name : Муза смерти (Муза) / Muse ( 2017 ) BDRemux 1080p | IVA(RUS.ENG) | ExKinoRay
Encoded date : UTC 2018-06-29 16:15:32
Writing application : mkvmerge v24.0.0 ('Beyond The Pale') 64-bit
Writing library : libebml v1.3.6 + libmatroska v1.4.9
Cover : Yes
Attachments : cover

Video
ID : 1
Format : AVC
Format/Info : Advanced Video Codec
Format profile : High@L4.1
Format settings, CABAC : Yes
Format settings, RefFrames : 3 frames
Codec ID : V_MPEG4/ISO/AVC
Duration : 1 h 47 min
Bit rate mode : Variable
Nominal bit rate : 34.0 Mb/s
Maximum bit rate : 36.0 Mb/s
Width : 1 920 pixels
Height : 1 080 pixels
Display aspect ratio : 16:9
Frame rate mode : Constant
Frame rate : 23.976 (24000/1001) FPS
Color space : YUV
Chroma subsampling : 4:2:0
Bit depth : 8 bits
Scan type : Progressive
Bits/(Pixel*Frame) : 0.684
Title : Muse.2017.1080p.FRA.TR.BDRemux
Writing library : x264 core 146 r2538 121396c
Encoding settings : cabac=1 / ref=4 / deblock=1:-1:-1 / analyse=0x3:0x133 / me=umh / subme=10 / psy=1 / psy_rd=1.00:0.15 / mixed_ref=1 / me_range=24 / chroma_me=1 / trellis=2 / 8x8dct=1 / cqm=0 / deadzone=21,11 / fast_pskip=1 / chroma_qp_offset=-3 / threads=48 / lookahead_threads=4 / sliced_threads=0 / slices=4 / nr=0 / decimate=1 / interlaced=0 / bluray_compat=1 / constrained_intra=0 / bframes=3 / b_pyramid=1 / b_adapt=2 / b_bias=0 / direct=3 / weightb=1 / open_gop=1 / weightp=1 / keyint=24 / keyint_min=1 / scenecut=40 / intra_refresh=0 / rc_lookahead=24 / rc=2pass / mbtree=1 / bitrate=34000 / ratetol=1.0 / qcomp=0.60 / qpmin=0 / qpmax=69 / qpstep=4 / cplxblur=20.0 / qblur=0.5 / vbv_maxrate=36000 / vbv_bufsize=30000 / nal_hrd=vbr / filler=0 / ip_ratio=1.40 / aq=1:1.00
Language : English
Default : Yes
Forced : No
Color range : Limited
Color primaries : BT.709
Transfer characteristics : BT.709
Matrix coefficients : BT.709

Audio #1
ID : 2
Format : AC-3
Format/Info : Audio Coding 3
Format settings, Endianness : Big
Codec ID : A_AC3
Duration : 1 h 47 min
Bit rate mode : Constant
Bit rate : 384 kb/s
Channel(s) : 6 channels
Channel positions : Front: L C R, Side: L R, LFE
Sampling rate : 48.0 kHz
Frame rate : 31.250 FPS (1536 SPF)
Bit depth : 16 bits
Compression mode : Lossy
Stream size : 296 MiB (1%)
Title : | Дублированный, iTunes |
Language : Russian
Service kind : Complete Main
Default : Yes
Forced : No

Audio #2
ID : 3
Format : DTS
Format/Info : Digital Theater Systems
Format profile : MA / Core
Mode : 16
Format settings, Endianness : Big
Codec ID : A_DTS
Duration : 1 h 47 min
Bit rate mode : Variable / Constant
Bit rate : Unknown / 1 509 kb/s
Channel(s) : 6 channels
Channel positions : Front: L C R, Side: L R, LFE
Sampling rate : 48.0 kHz
Frame rate : 93.750 FPS (512 SPF)
Bit depth : 24 bits
Compression mode : Lossless / Lossy
Title : | Original |
Language : English
Default : No
Forced : No

Audio #3
ID : 4
Format : AC-3
Format/Info : Audio Coding 3
Format settings, Endianness : Big
Codec ID : A_AC3
Duration : 1 h 47 min
Bit rate mode : Constant
Bit rate : 640 kb/s
Channel(s) : 6 channels
Channel positions : Front: L C R, Side: L R, LFE
Sampling rate : 48.0 kHz
Frame rate : 31.250 FPS (1536 SPF)
Bit depth : 16 bits
Compression mode : Lossy
Stream size : 494 MiB (2%)
Title : | Original |
Language : English
Service kind : Complete Main
Default : No
Forced : No

Menu
00:00:00.000 : en:00:00:00.000
00:11:20.555 : en:00:11:20.555
00:18:02.498 : en:00:18:02.498
00:28:18.947 : en:00:28:18.947
00:38:21.049 : en:00:38:21.049
00:47:18.002 : en:00:47:18.002
00:56:38.687 : en:00:56:38.687
01:04:58.186 : en:01:04:58.186
01:15:33.571 : en:01:15:33.571
01:27:56.688 : en:01:27:56.688
01:36:23.653 : en:01:36:23.653
01:43:44.510 : en:01:43:44.510
pb.wtf



Скачать Муза смерти через торрент https://d.radikal.ru/d23/1806/5d/f5e5c1df05d2.png Скачать фильм Муза смерти через торрент бесплантно в хорошем качестве Описание: Профессор литературы Самуэль Саломон год назад ушел с работы после трагической смерти подруги. Он страдает от повторяющегося ... 9.7 10 10
Info! Золотая раздача, скачанное не засчитывается.
Торрент: Зарегистрирован [2018-06-29 17:17] · скачан: 83 раз
Статус: √ проверено
Размер: 27.64 GB
Как cкачать? Как скачать Муза смерти через торрент | qTorrent

28-11-2019 20:33  

Отключить всю рекламу на сайте

    Дорогой пользователь! Огромная просьба, поблагодарите релизера, оцените раздачу и оставьте свои комментарий, если Вы скачали Муза смерти через торрент бесплатно! Внесите свою лепту в развитие PiratBit!
    Комментировать посты могут только пользователи прошедшие не сложную регистрацию
    Показать сообщения:    

    Муза смерти через торрент
    Скачать бесплатно Муза смерти
    Муза смерти скачать торрент
    Муза смерти смотреть онлайн
    Cкачать фильм Муза смерти бесплатно
    Муза смерти скачать торрент в хорошем качестве
    Муза смерти смотреть онлайн бесплатно в хорошем качестве


    Вы не можете начинать темы
    Вы не можете отвечать на сообщения
    Вы не можете редактировать свои сообщения
    Вы не можете удалять свои сообщения
    Вы не можете голосовать в опросах
    Вы не можете прикреплять файлы к сообщениям
    Вы можете скачивать файлы