Ссылка на приватное зеркало всего за 1$. Внимание количество ограничено!!!

iTunes

1+1

iTunes

мы

WEB-DL

1

iTunes

Чернобыль

iTunes

Ральф против интернета

Лицензия

ПШазам

Лицензия

Оно 2

Лицензия

30
pack

Вам бонус

ВАЖНО

!!Акция!!

Alien_RageХит недели

RePack

Resident Evil 21

ИГРА 18+

pack

RePack

jed

!!Акция!!

Alien_Rage

RePack

fifa19

RePack

Assassins Creed: Odyssey

RePack

NEED FOR SPEED™ PAYBACK

3 сезон

9 сезон

Бесстыжие 9 сезон

Все сериалы

все сериалы на PB.wtf

RePack

FAR CRY 5
Ребята, катастрофически не хватает 1900р. для оплаты серверов за Октябрь (всвязи с блокировками трафик упал в 3 раза), 1-2р., выручайте.
  

Павел, апостол Христа / Paul, Apostle of Christ (Эндрю Хайатт) [2018, драма, история, BDRip-AVC] DUB [Лицензия] pb.wtf

Павел, апостол Христа через торрент pb.wtf

Раздают: 1 [ 0 KB/s ]
Размер: 1.91 GB | Добавлен: 1 год 5 мес. назад | Торрент скачан:336 раз
Скачать  

29-06-2018 17:25 Павел, апостол Христа Скачать торрент  

Павел, апостол Христа / Paul, Apostle of Christ
Год выпуска: 2018
Страна: США
Жанр: драма, история
Продолжительность: 01:47:46
Перевод: Профессиональный (многоголосый) | Лицензия
Субтитры: Русские (полные)

Режиссер: Эндрю Хайатт

rating

В ролях:

Джеймс Кэвизел, Джеймс Фолкнер, Оливье Мартинес, Джоэнн Уэлли, Джон Линч, Гиоргос Карамихос, Антония Кэмпбелл-Хьюджес, Алессандро Спердути, Александра Вино, Мануэль Коши

Описание:

История жизни и смерти апостола Павла, который прошёл путь от беспощадного гонителя христиан до одного из основателей христианской церкви. Его последнее миссионерское путешествие заканчивается в тюрьме, куда он был заточён по приказу римского императора Нерона. Пока плененный Павел ждёт казни и размышляет о своей посмертной участи, его последователь Лука пишет новое Евангелие.

Качество: BDRip-AVC
Формат: MKV

Видео: 1024x430 (16:9), 23,976 fps, x264 ~1 636 kbps avg, 0.155 bit/pixel
Аудио#1: 48 kHz, AC3 Dolby Digital, 3/2 (L,C,R,l,r) + LFE ch, ~448.00 kbps avg | RUS (Лицензия)
Аудио#2: 48 kHz, AC3 Dolby Digital, 3/2 (L,C,R,l,r) + LFE ch, ~448.00 kbps avg | ENG
скриншот   скриншот   скриншот   скриншот  

Общее
Уникальный идентификатор : 240006987134035190112939472958917887861 (0xB48FAA121429DC528FB040E161E2C775)
Полное имя : D:\Загрузки\Paul,Apostle.Of.Christ.2018.x264.BDRip.(AVC).OlLanDGroup.mkv
Формат : Matroska
Версия формата : Version 4 / Version 2
Размер файла : 1,91 Гбайт
Продолжительность : 1 ч. 47 м.
Общий поток : 2536 Кбит/сек
Название фильма : Павел, апостол Христа.2018.Rip by: ollan
Дата кодирования : UTC 2018-06-28 23:26:56
Программа кодирования : mkvmerge v6.5.0 ('Isn't she lovely') built on Oct 20 2013 12:50:05
Библиотека кодирования : libebml v1.3.0 + libmatroska v1.4.1
Attachements : Cover - Paul.Apostle.Of.Christ.png

Видео
Идентификатор : 1
Формат : AVC
Формат/Информация : Advanced Video Codec
Профиль формата : High@L4.1
Параметр CABAC формата : Да
Параметр RefFrames формата : 10 кадров
Идентификатор кодека : V_MPEG4/ISO/AVC
Продолжительность : 1 ч. 47 м.
Битрейт : 1636 Кбит/сек
Ширина : 1024 пикселя
Высота : 430 пикселей
Соотношение сторон : 2,40:1
Режим частоты кадров : Постоянный
Частота кадров : 23,976 (24000/1001) кадра/сек
Цветовое пространство : YUV
Субдискретизация насыщенности : 4:2:0
Битовая глубина : 8 бит
Тип развёртки : Прогрессивная
Бит/(Пиксели*Кадры) : 0.155
Размер потока : 1,20 Гбайт (63%)
Библиотека кодирования : x264 core 146 r2538 121396c
Настройки программы : cabac=1 / ref=10 / deblock=1:-2:-3 / analyse=0x3:0x133 / me=umh / subme=11 / psy=1 / psy_rd=0.90:0.05 / mixed_ref=1 / me_range=64 / chroma_me=1 / trellis=2 / 8x8dct=1 / cqm=0 / deadzone=21,11 / fast_pskip=0 / chroma_qp_offset=-3 / threads=12 / lookahead_threads=3 / sliced_threads=0 / nr=0 / decimate=0 / interlaced=0 / bluray_compat=0 / constrained_intra=0 / bframes=10 / b_pyramid=2 / b_adapt=2 / b_bias=0 / direct=3 / weightb=1 / open_gop=0 / weightp=2 / keyint=240 / keyint_min=23 / scenecut=40 / intra_refresh=0 / rc_lookahead=40 / rc=2pass / mbtree=0 / bitrate=1636 / ratetol=1.0 / qcomp=0.60 / qpmin=0 / qpmax=69 / qpstep=4 / cplxblur=20.0 / qblur=0.5 / vbv_maxrate=50000 / vbv_bufsize=62500 / nal_hrd=none / filler=0 / ip_ratio=1.40 / pb_ratio=1.30 / aq=1:1.00
Язык : English
Default : Да
Forced : Нет

Аудио #1
Идентификатор : 2
Формат : AC-3
Формат/Информация : Audio Coding 3
Расширение режима : CM (complete main)
Параметр Endianness формата : Big
Идентификатор кодека : A_AC3
Продолжительность : 1 ч. 47 м.
Вид битрейта : Постоянный
Битрейт : 448 Кбит/сек
Каналы : 6 каналов
Расположение каналов : Front: L C R, Side: L R, LFE
Частота : 48,0 КГц
Частота кадров : 31,250 кадров/сек (1536 spf)
Метод сжатия : С потерями
Размер потока : 345 Мбайт (18%)
Заголовок : Лицензя
Язык : Russian
Default : Да
Forced : Нет

Аудио #2
Идентификатор : 3
Формат : AC-3
Формат/Информация : Audio Coding 3
Расширение режима : CM (complete main)
Параметр Endianness формата : Big
Идентификатор кодека : A_AC3
Продолжительность : 1 ч. 47 м.
Вид битрейта : Постоянный
Битрейт : 448 Кбит/сек
Каналы : 6 каналов
Расположение каналов : Front: L C R, Side: L R, LFE
Частота : 48,0 КГц
Частота кадров : 31,250 кадров/сек (1536 spf)
Метод сжатия : С потерями
Размер потока : 345 Мбайт (18%)
Язык : English
Default : Нет
Forced : Нет

Текст
Идентификатор : 4
Формат : UTF-8
Идентификатор кодека : S_TEXT/UTF8
Идентификатор кодека/Информация : UTF-8 Plain Text
Заголовок : Full
Язык : Russian
Default : Нет
Forced : Нет

Меню
00:00:00.000 : en:Chapter 01
00:07:58.436 : en:Chapter 02
00:14:52.099 : en:Chapter 03
00:22:26.136 : en:Chapter 04
00:29:26.181 : en:Chapter 05
00:36:19.302 : en:Chapter 06
00:40:36.183 : en:Chapter 07
00:46:59.525 : en:Chapter 08
00:52:04.454 : en:Chapter 09
00:55:47.552 : en:Chapter 10
01:00:38.176 : en:Chapter 11
01:08:15.591 : en:Chapter 12
01:19:16.001 : en:Chapter 13
01:24:19.429 : en:Chapter 14
01:28:38.604 : en:Chapter 15
01:34:40.007 : en:Chapter 16

pb.wtf



Скачать Павел, апостол Христа через торрент http://pic1.kartinco.top/images/11/2hqmq.jpg Скачать фильм Павел, апостол Христа через торрент бесплантно в хорошем качестве Описание: История жизни и смерти апостола Павла, который прошёл путь от беспощадного гонителя христиан до одного из основателей ... 9.3 10 14
Info! Золотая раздача, скачанное не засчитывается.
Торрент: Зарегистрирован [2018-06-29 17:25] · скачан: 336 раз
Статус: √ проверено
Размер: 1.91 GB
Как cкачать? Как скачать Павел, апостол Христа через торрент | qTorrent

% Раздел Тема Автор DL S | L
Фильмы 2018 [DVDrip, WEB-DLRip, HDrip] (DUB, MVO) [ 1.46 GB ] Павел апостол Христа / Paul Apostle of Christ [2018 история BDRip] - [] Twi7ter Скачать
1 | 0
Фильмы [HD 720p, 1080p] (Хороший звук DUB, MVO) [ 5.28 GB ] Павел апостол Христа / Paul Apostle of Christ [2018 история BDRip-HEVC 1080p ] MVO [] bober100 Скачать
1 | 0
Фильмы (Blu-ray, BD-Remux, HDDVD) [ 30.38 GB ] Павел апостол Христа / Paul Apostle of Christ [2018 история Blu-ray 1080p] DUB [] bober100 Скачать
1 | 0
Фильмы (Blu-ray, BD-Remux, HDDVD) [ 20.82 GB ] Павел апостол Христа / Paul Apostle of Christ [2018 история BD Remux 1080p] DUB [] bober100 Скачать
1 | 0
Фильмы [HD 720p, 1080p] (Хороший звук DUB, MVO) [ 7.95 GB ] Павел апостол Христа / Paul Apostle of Christ [2018 история BDRip 1080p] DUB [] bober100 Скачать
4 | 0
Фильмы 2018 [DVDrip, WEB-DLRip, HDrip] (DUB, MVO) [ 1.46 GB ] Павел апостол Христа / Paul Apostle of Christ [2018 история BDRip] DUB [ Blu-ray EUR] bober100 Скачать
1 | 0

28-11-2019 20:33  

Отключить всю рекламу на сайте

    Дорогой пользователь! Огромная просьба, поблагодарите релизера, оцените раздачу и оставьте свои комментарий, если Вы скачали Павел, апостол Христа через торрент бесплатно! Внесите свою лепту в развитие PiratBit!
    Комментировать посты могут только пользователи прошедшие не сложную регистрацию
    Показать сообщения:    

    Павел, апостол Христа через торрент
    Скачать бесплатно Павел, апостол Христа
    Павел, апостол Христа скачать торрент
    Павел, апостол Христа смотреть онлайн
    Cкачать фильм Павел, апостол Христа бесплатно
    Павел, апостол Христа скачать торрент в хорошем качестве
    Павел, апостол Христа смотреть онлайн бесплатно в хорошем качестве


    Вы не можете начинать темы
    Вы не можете отвечать на сообщения
    Вы не можете редактировать свои сообщения
    Вы не можете удалять свои сообщения
    Вы не можете голосовать в опросах
    Вы не можете прикреплять файлы к сообщениям
    Вы можете скачивать файлы