Ссылка на приватное зеркало нашего сайта всего за 1$. Внимание количество ограничено!!!

2 сезон

iTunes

iTunes

1

iTunes

iTunes

iTunes

WEBRip

iTunes

30
pack

Вам бонус

ВАЖНО

!!Акция!!

Alien_RageХит недели

RePack

Horizon Zero Dawn

ИГРА 18+

pack

RePack

jed

!!Акция!!

Alien_Rage

RePack

fifa19

RePack

Assassins Creed: Odyssey

RePack

NEED FOR SPEED™ PAYBACK

4 сезон

9 сезон

Бесстыжие 9 сезон

Все сериалы

все сериалы на PB.wtf

RePack

FAR CRY 5
  

Блок №13 / The Darkness, Rage and the Fury (Тэофилус Лэйси) [2014, ужасы, фантастика, триллер, BDRip 720p] MVO [официальный звук] pb.wtf

Блок №13 через торрент pb.wtf

Размер: 3.83 GB | Добавлен: 2 года 2 мес. назад | Торрент скачан:62 раза
Скачать  

29-06-2018 18:16 Блок №13 Скачать торрент  

Блок №13 / The Darkness, Rage and the FuryГод выпуска: 2014
Страна: США
Жанр: ужасы, фантастика, триллер
Продолжительность: 01:25:08
Перевод: Любительский (многоголосый) | официальный звук
Субтитры: отсутствуют

Режиссер: Тэофилус Лэйси

rating
В ролях:

Джон Аллен Филлипс, Лэнс Аарон, Эйдан Бристоу, Робби Дэймонд, Роки Дюшарм, Карлос Джозеф, Кейт Келли, Мэнди Мэй, Мэтт Миллер

Описание:

В августе 1937 года произошло жестокое убийство. Полиция так и не смогла найти виновного в этом преступлении. Спустя 74 года кровавые события вновь повторяются. Совершенно незнакомые люди оказываются заложниками ситуации: все они оказались в закрытом пространстве хранилища старого здания. Тут они сталкиваются с загадочным существом, которое несет смерть.

Качество: BDRip 720p
Формат: MKV

Видео: h.264, 5 989 kb/s, 1280x720
Аудио#1: Русский (AC3, 2 ch, 448 Кбит/с)
скриншот  скриншот  скриншот  

Общее
Уникальный идентификатор : 205470406345266795846848121955911338779 (0x9A94292BEE354AE5BA8A2445DDA60B1B)
Полное имя : D:\The.Darkness.Rage.and.the.Fury.2014.Pof.BDRip.72Op_KOSHARA.mkv
Формат : Matroska
Версия формата : Version 2
Размер файла : 3,83 Гбайт
Продолжительность : 1 ч. 25 м.
Режим общего битрейта : Переменный
Общий поток : 6439 Кбит/сек
Дата кодирования : UTC 2018-06-27 12:25:30
Программа кодирования : mkvmerge v8.3.0 ('Over the Horizon') 64bit
Библиотека кодирования : libebml v1.3.1 + libmatroska v1.4.2

Видео
Идентификатор : 1
Формат : AVC
Формат/Информация : Advanced Video Codec
Профиль формата : High@L4.1
Параметр CABAC формата : Да
Параметр RefFrames формата : 4 кадра
Идентификатор кодека : V_MPEG4/ISO/AVC
Продолжительность : 1 ч. 25 м.
Вид битрейта : Переменный
Битрейт : 5989 Кбит/сек
Максимальный битрейт : 6800 Кбит/сек
Ширина : 1280 пикселей
Высота : 720 пикселей
Соотношение сторон : 16:9
Режим частоты кадров : Постоянный
Частота кадров : 23,976 (24000/1001) кадра/сек
Стандарт вещания : Component
Цветовое пространство : YUV
Субдискретизация насыщенности : 4:2:0
Битовая глубина : 8 бит
Тип развёртки : Прогрессивная
Бит/(Пиксели*Кадры) : 0.265
Размер потока : 3,49 Гбайт (91%)
Default : Да
Forced : Нет
Цветовой диапазон : Limited
Основные цвета : BT.709
Характеристики трансфера : BT.709
Коэффициенты матрицы : BT.709

Аудио
Идентификатор : 2
Формат : AC-3
Формат/Информация : Audio Coding 3
Расширение режима : CM (complete main)
Параметр Endianness формата : Big
Идентификатор кодека : A_AC3
Продолжительность : 1 ч. 25 м.
Вид битрейта : Постоянный
Битрейт : 448 Кбит/сек
Каналы : 2 канала
Расположение каналов : Front: L R
Частота : 48,0 КГц
Частота кадров : 31,250 кадров/сек (1536 spf)
Метод сжатия : С потерями
Размер потока : 273 Мбайт (7%)
Default : Да
Forced : Нет

pb.wtf



Скачать Блок №13 через торрент http://img11.lostpic.net/2018/06/29/3333be104b1400f36b169c95542bd2a4.jpg Скачать фильм Блок №13 через торрент бесплантно в хорошем качестве Описание: В августе 1937 года произошло жестокое убийство. Полиция так и не смогла найти виновного в этом преступлении. Спустя 74 года ... 7.2 10 5
Торрент: Зарегистрирован [2018-06-29 18:16] · скачан: 62 раз
Статус: # сомнительно
Размер: 3.83 GB
Как cкачать? Как скачать Блок №13 через торрент | qTorrent

% Раздел Тема Автор DL S | L
T Фильмы (мультфильмы) cо спонсором показа (Новинки AVI/MKV) [ 1.37 GB ] Блок №13 / The Darkness Rage and the Fury [2014 HDRip] MVO [официальный звук] bober100 Скачать
1 | 0

28-11-2019 20:33  

Отключить всю рекламу на сайте

    Дорогой пользователь! Огромная просьба, поблагодарите релизера, оцените раздачу и оставьте свои комментарий, если Вы скачали Блок №13 через торрент бесплатно! Внесите свою лепту в развитие PiratBit!
    Комментировать посты могут только пользователи прошедшие не сложную регистрацию
    Показать сообщения:    

    Блок №13 через торрент
    Скачать бесплатно Блок №13
    Блок №13 скачать торрент
    Блок №13 смотреть онлайн
    Cкачать фильм Блок №13 бесплатно
    Блок №13 скачать торрент в хорошем качестве
    Блок №13 смотреть онлайн бесплатно в хорошем качестве


    Вы не можете начинать темы
    Вы не можете отвечать на сообщения
    Вы не можете редактировать свои сообщения
    Вы не можете удалять свои сообщения
    Вы не можете голосовать в опросах
    Вы не можете прикреплять файлы к сообщениям
    Вы можете скачивать файлы