Ссылка на приватное зеркало нашего сайта всего за 1$. Внимание количество ограничено!!!

2 сезон

iTunes

1 сезон

1

2 сезон

2 сезон

iTunes

1 сезон

RePack

30

Ultimate

ВАЖНО

ИГРА 18+

pack

RePack

MK11
pack

Забери бонус

RePack

jed

!!Акция!!

Alien_Rage

RePack

fifa19

RePack

Assassins Creed: Odyssey

RePack

NEED FOR SPEED™ PAYBACK

4 сезон

9 сезон

Бесстыжие 9 сезон

Все сериалы

все сериалы на PB.wtf

RePack

FAR CRY 5
  

Переправа / The Crossing / Сезон: 1 / Серии: 1-11 из 11 (Роб Боумен, Кен Джиротти, Джеффри Дж. Хант) [2018, фантастика, драма, приключения, WEBRip] MVO [Jaskier] pb.wtf

Переправа через торрент pb.wtf

Размер: 5.73 GB | Добавлен: 2 года 4 мес. назад | Торрент скачан:90 раз
Скачать  

29-06-2018 18:39 Переправа Скачать торрент  

Переправа / The Crossing
Информация о фильме:

Название: Переправа
Оригинальное название: The Crossing
Год выпуска: 2018 \(1 сезон\)
Страна: США / ABC Studios, Jason T. Reed Productions
Жанр: фантастика, драма, приключения
Продолжительность: ~ 00:43:00 серия
Перевод: Профессиональный (многоголосый) | Jaskier
Субтитры: Нет

Режиссер: Роб Боумен, Кен Джиротти, Джеффри Дж. Хант

rating

В ролях:

Рик Гомес, Грант Уитни Харви, Келли Миссал, Симона Кэссел, Люк Камиллери, Стив Зан, Кристиан Майкл Купер, Райан МакДонелл, Сандрин Холт, Барбара Ив Харрис

Описание:

Волны выбрасывают на промозглый орегонский пляж тела непонятно откуда взявшихся беженцев. Все они прибыли из будущего, в котором сейчас вовсю разворачивается очередная мировая война. В том, чем грозит нашествие, пытается разобраться местный шериф.

Информация о файле:

Качество: WEBRip
Формат: AVI

Видео: XviD, ~ 1500 kbps, 720x400 (16:9), 23.976 fps
Аудио#1: MP3, 48,0 КГц, 2 ch, 128 kbps - Rus
Аудио#2: MP3, 48,0 КГц, 2 ch, 128 kbps - Eng
скриншот   скриншот   скриншот  

Общее
Полное имя : D:\The.Crossing Season 1 (WEBRip l 400p l Jaskier)\The.Crossing.S01E01.WEBRip.Jaskier.avi
Формат : AVI
Формат/Информация : Audio Video Interleave
Размер файла : 542 Мбайт
Продолжительность : 42 м. 44 с.
Общий поток : 1772 Кбит/сек
Программа кодирования : VirtualDubMod 1.5.10.3 | www.virtualdub-fr.org || (build 2550/release)
Библиотека кодирования : VirtualDubMod build 2550/release

Видео
Идентификатор : 0
Формат : MPEG-4 Visual
Профиль формата : Advanced Simple@L5
Параметр BVOP формата : 2
Параметр QPel формата : Нет
Параметр GMC формата : Без точки перехода
Параметр матрицы формата : Default (H.263)
Идентификатор кодека : XVID
Идентификатор кодека/Подсказка : XviD
Продолжительность : 42 м. 44 с.
Битрейт : 1502 Кбит/сек
Ширина : 720 пикселей
Высота : 400 пикселей
Соотношение сторон : 16:9
Частота кадров : 23,976 (24000/1001) кадра/сек
Цветовое пространство : YUV
Субдискретизация насыщенности : 4:2:0
Битовая глубина : 8 бит
Тип развёртки : Прогрессивная
Метод сжатия : С потерями
Бит/(Пиксели*Кадры) : 0.218
Размер потока : 459 Мбайт (85%)
Библиотека кодирования : XviD 67

Аудио #1
Идентификатор : 1
Формат : MPEG Audio
Версия формата : Version 1
Профиль формата : Layer 3
Режим : Joint stereo
Расширение режима : MS Stereo
Идентификатор кодека : 55
Идентификатор кодека/Подсказка : MP3
Продолжительность : 42 м. 44 с.
Вид битрейта : Постоянный
Битрейт : 128 Кбит/сек
Каналы : 2 канала
Частота : 48,0 КГц
Метод сжатия : С потерями
Размер потока : 39,1 Мбайт (7%)
Выравнивание : Соединение по промежуткам
Продолжительность промежутка : 42 мс. (1,00 видеокадр)
Время предзагрузки промежутка : 504 мс.
Библиотека кодирования : LAME3.100Є

Аудио #2
Идентификатор : 2
Формат : MPEG Audio
Версия формата : Version 1
Профиль формата : Layer 3
Режим : Joint stereo
Расширение режима : MS Stereo
Идентификатор кодека : 55
Идентификатор кодека/Подсказка : MP3
Продолжительность : 42 м. 44 с.
Вид битрейта : Постоянный
Битрейт : 128 Кбит/сек
Каналы : 2 канала
Частота : 48,0 КГц
Метод сжатия : С потерями
Размер потока : 39,1 Мбайт (7%)
Выравнивание : Соединение по промежуткам
Продолжительность промежутка : 42 мс. (1,00 видеокадр)
Время предзагрузки промежутка : 504 мс.

pb.wtf



Скачать Переправа через торрент http://i104.fastpic.ru/big/2018/0408/28/f0c22dbca4a25d0e5b3ab461fb8c7e28.png Скачать фильм Переправа через торрент бесплантно в хорошем качестве Описание: Волны выбрасывают на промозглый орегонский пляж тела непонятно откуда взявшихся беженцев. Все они прибыли из будущего, в котором ... 10 10 5
Торрент: Зарегистрирован [2018-06-29 18:39] · скачан: 90 раз
Статус: √ проверено
Размер: 5.73 GB
Как cкачать? Как скачать Переправа через торрент | qTorrent

% Раздел Тема Автор DL S | L
Зарубежные сериалы [ 3.93 GB ] Переправа / The Crossing / Сезон: 1 / Серия 1-8 из 11 [2018 WEBRip] MVO [BaibaKo] GEKADOL Скачать
1 | 0
Зарубежные сериалы [ 23.33 GB ] Переправа / The Crossing / Сезон: 1 / Серии: 1-11 из 11 [2018 WEBRip 720p] MVO [Jaskier] bober100 Скачать
1 | 0
Зарубежные сериалы [ 15.69 GB ] Переправа / The Crossing / Сезон: 1 / Серии: 1-11 из 11 [2018 WEB-DL 720p] MVO [NewStudio] bober100 Скачать
1 | 0
Зарубежные сериалы [ 9.32 GB ] Переправа / The Crossing / Сезон: 1 / Серии: 1-11 из 11 [2018 WEBRip 720p] DVO [SunshineStudio] bober100 Скачать
1 | 0
Зарубежные сериалы [ 5.38 GB ] Переправа / The Crossing / Сезон: 1 / Серии: 1-11 из 11 [2018 WEBRip] DVO [SunshineStudio] bober100 Скачать
1 | 0
Зарубежные сериалы [ 5.67 GB ] Переправа / The Crossing / Сезон: 1 / Серия 1-11 из 11 [2018 научная WEBRip] [MVO] killermax2013 Скачать
1 | 0
Зарубежные сериалы [ 39.97 GB ] Переправа / The Crossing / Сезон: 1 / Серия 1-11 из 11 [2018 научная WEB-DL 1080p] [MVO] killermax2013 Скачать
1 | 0

28-11-2019 20:33  

Отключить всю рекламу на сайте

    Дорогой пользователь! Огромная просьба, поблагодарите релизера, оцените раздачу и оставьте свои комментарий, если Вы скачали Переправа через торрент бесплатно! Внесите свою лепту в развитие PiratBit!
    Комментировать посты могут только пользователи прошедшие не сложную регистрацию
    Показать сообщения:    

    Переправа через торрент
    Скачать бесплатно Переправа
    Переправа скачать торрент
    Переправа смотреть онлайн
    Cкачать фильм Переправа бесплатно
    Переправа скачать торрент в хорошем качестве
    Переправа смотреть онлайн бесплатно в хорошем качестве


    Вы не можете начинать темы
    Вы не можете отвечать на сообщения
    Вы не можете редактировать свои сообщения
    Вы не можете удалять свои сообщения
    Вы не можете голосовать в опросах
    Вы не можете прикреплять файлы к сообщениям
    Вы можете скачивать файлы