Ссылка на приватное зеркало нашего сайта всего за 1$. Внимание количество ограничено!!!

2 сезон

iTunes

1 сезон

1

2 сезон

2 сезон

iTunes

1 сезон

RePack

30

Новинка

ВАЖНО

ИГРА 18+

pack

RePack

MK11
pack

Забери бонус

RePack

jed

!!Акция!!

Alien_Rage

RePack

fifa19

RePack

Assassins Creed: Odyssey

RePack

NEED FOR SPEED™ PAYBACK

4 сезон

9 сезон

Бесстыжие 9 сезон

Все сериалы

все сериалы на PB.wtf

RePack

FAR CRY 5
  

Душа компании / Life of the Party (Бен Фэлкоун) [2018, комедия, WEB-DL 1080p] MVO [HDrezka Studio] pb.wtf

Душа компании через торрент pb.wtf

Раздают: 1 [ 0 KB/s ]
Размер: 3.75 GB | Добавлен: 2 года 4 мес. назад | Торрент скачан:413 раз
Скачать  

30-06-2018 01:47 Душа компании Скачать торрент  

Душа компании / Life of the Party
Год выпуска: 2018
Страна: США
Жанр: комедия
Продолжительность: 01:44:45
Перевод: Профессиональный (многоголосый) | HDRezka studio
Субтитры: Английские

Режиссер: Бен Фэлкоун

rating

В ролях:

Гиллиан Джейкобс, Мелисса МакКарти, Дебби Райан, Адриа Архона, Джули Боуэн, Люк Бенвард, Молли Гордон, Майя Рудольф, Стивен Рут, Крис Парнелл

Описание:

После неожиданного развода домохозяйка Диана решает перезапустить собственную жизнь и отправляется в колледж. Она попадает на один поток с родной дочерью, которая совсем не рада подобному повороту событий. Но Диану уже не остановить. С распростёртыми объятиями она принимает безумную студенческую жизнь.

Качество: WEB-DL 1080p
Формат: MKV

Видео: MPEG-4 AVC, 1912x792, 4546 Kbit/s, 23.976 fps
Аудио#1: 48 kHz, AC3, 2.0, 192 Kbps | HDRezka Studio | RUS |
Аудио#2: 48 kHz, AC3, 5.1, 384 Kbps | Оригинал | ENG |
скриншот  
скриншот   скриншот   скриншот   скриншот   скриншот  

General
Unique ID : 188076131673126340511365196089340212325 (0x8D7E2537B6CC893D8E287DF93D983465)
Complete name : E:VideoLife.of.the.Party.2018.WEB-DL.1080p.ExKinoRay.mkv
Format : Matroska
Format version : Version 4 / Version 2
File size : 3.75 GiB
Duration : 1 h 44 min
Overall bit rate : 5 125 kb/s
Movie name : Life Of The Party 2018 from ExKinoRay
Encoded date : UTC 2018-06-30 00:36:54
Writing application : mkvmerge v7.3.0 ('Nouages') 64bit built on Oct 22 2014 18:53:34
Writing library : libebml v1.3.0 + libmatroska v1.4.1

Video
ID : 1
Format : AVC
Format/Info : Advanced Video Codec
Format profile : High@L4
Format settings : CABAC / 5 Ref Frames
Format settings, CABAC : Yes
Format settings, ReFrames : 5 frames
Codec ID : V_MPEG4/ISO/AVC
Duration : 1 h 44 min
Bit rate : 4 546 kb/s
Width : 1 912 pixels
Height : 792 pixels
Display aspect ratio : 2.40:1
Frame rate mode : Constant
Frame rate : 23.976 FPS
Color space : YUV
Chroma subsampling : 4:2:0
Bit depth : 8 bits
Scan type : Progressive
Bits/(Pixel*Frame) : 0.125
Stream size : 3.33 GiB (89%)
Language : English
Default : Yes
Forced : No
Color range : Limited
Color primaries : BT.709
Transfer characteristics : BT.709
Matrix coefficients : BT.709

Audio #1
ID : 2
Format : AC-3
Format/Info : Audio Coding 3
Codec ID : A_AC3
Duration : 1 h 44 min
Bit rate mode : Constant
Bit rate : 192 kb/s
Channel(s) : 2 channels
Channel positions : Front: L R
Sampling rate : 48.0 kHz
Frame rate : 31.250 FPS (1536 SPF)
Bit depth : 16 bits
Compression mode : Lossy
Stream size : 144 MiB (4%)
Title : MVO [HDRezka Studio]
Language : Russian
Service kind : Complete Main
Default : Yes
Forced : Yes

Audio #2
ID : 3
Format : AC-3
Format/Info : Audio Coding 3
Codec ID : A_AC3
Duration : 1 h 44 min
Bit rate mode : Constant
Bit rate : 384 kb/s
Channel(s) : 6 channels
Channel positions : Front: L C R, Side: L R, LFE
Sampling rate : 48.0 kHz
Frame rate : 31.250 FPS (1536 SPF)
Bit depth : 16 bits
Compression mode : Lossy
Stream size : 288 MiB (7%)
Title : Original
Language : English
Service kind : Complete Main
Default : No
Forced : No

Text
ID : 4
Format : UTF-8
Codec ID : S_TEXT/UTF8
Codec ID/Info : UTF-8 Plain Text
Duration : 1 h 44 min
Bit rate : 89 b/s
Count of elements : 2040
Stream size : 68.1 KiB (0%)
Title : Full
Language : English
Default : No
Forced : No

Menu
00:00:00.000 : en:1
00:11:50.000 : en:2
00:20:12.000 : en:3
00:32:38.000 : en:4
00:43:27.000 : en:5
00:52:31.000 : en:6
01:03:30.000 : en:7
01:13:37.000 : en:8
01:25:29.000 : en:9
01:39:39.000 : en:10

pb.wtf



Скачать Душа компании через торрент http://img11.lostpic.net/2018/06/25/d5143517046bc5a4fab071b2b5d065ff.jpg Скачать фильм Душа компании через торрент бесплантно в хорошем качестве Описание: После неожиданного развода домохозяйка Диана решает перезапустить собственную жизнь и отправляется в колледж. Она попадает на ... 8.1 10 12
Info! Серебряная раздача, засчитывается только 50% скачанного.
Торрент: Зарегистрирован [2018-06-30 01:47] · скачан: 413 раз
Статус: T временная
Размер: 3.75 GB
Как cкачать? Как скачать Душа компании через торрент | qTorrent

% Раздел Тема Автор DL S | L
Фильмы 2018 [DVDrip, WEB-DLRip, HDrip] (DUB, MVO) [ 1.41 GB ] Душа компании / Life of the Party [2018 BDRip] DUB [IVI] bober100 Скачать
1 | 0
T Ultra HD (UHD: 2K, 4K, 8K) — видео сверхвысокой чёткости [ 20.54 GB ] Душа компании / Life of the Party [2018 UHD WEBRip 2160p] DUB +MVO [HDrezka Studio] bober100 Скачать
1 | 0
T Фильмы (Blu-ray, BD-Remux, HDDVD) [ 24.47 GB ] Душа компании / Life of the Party [2018 BD Remux 1080p] MVO [HDrezka Studio] bober100 Скачать
1 | 0
T Фильмы 2018 [DVDrip, WEB-DLRip, HDrip] (DUB, MVO) [ 1.61 GB ] Душа компании / Life of the Party [2018 BDRip-AVC] MVO [HDrezka Studio] bober100 Скачать
2 | 0
T R.G. Resident & PiratVoice - Фильмы, Видео [ 1.37 GB ] Душа компании / Life of the Party [2018 WEB-DLRip ] MVO [HDRezka Studio] -Lexx- Скачать
1 | 0
T Фильмы с украинским озвучиванием [ 1.13 GB ] Душа компании / Life of the Party [2018 WEB-DLRip-AVC] [Ukr DUB] killermax2013 Скачать
1 | 0

28-11-2019 20:33  

Отключить всю рекламу на сайте

03-07-2018 00:16 Душа компании Скачать торрент  

фильм давит лыбой смущения, чем юмором..
как и есть 5-5,5/10pb.wtf



    Дорогой пользователь! Огромная просьба, поблагодарите релизера, оцените раздачу и оставьте свои комментарий, если Вы скачали Душа компании через торрент бесплатно! Внесите свою лепту в развитие PiratBit!
    Комментировать посты могут только пользователи прошедшие не сложную регистрацию
    Показать сообщения:    

    Душа компании через торрент
    Скачать бесплатно Душа компании
    Душа компании скачать торрент
    Душа компании смотреть онлайн
    Cкачать фильм Душа компании бесплатно
    Душа компании скачать торрент в хорошем качестве
    Душа компании смотреть онлайн бесплатно в хорошем качестве


    Вы не можете начинать темы
    Вы не можете отвечать на сообщения
    Вы не можете редактировать свои сообщения
    Вы не можете удалять свои сообщения
    Вы не можете голосовать в опросах
    Вы не можете прикреплять файлы к сообщениям
    Вы можете скачивать файлы