Ссылка на приватное зеркало всего за 1$. Внимание количество ограничено!!!

OK

1+1

iTunes

мы

OK

1

WEB-DLRip

Джокер

Пифагор

Ведьмак / The Witcher сериал

Лицензия

ПШазам

ОК

Оно 2

iTunes

30
pack

Вам бонус

ВАЖНО

!!Акция!!

Alien_RageХит недели

RePack

Resident Evil 21

ИГРА 18+

pack

RePack

jed

!!Акция!!

Alien_Rage

RePack

fifa19

RePack

Assassins Creed: Odyssey

RePack

NEED FOR SPEED™ PAYBACK

4 сезон

9 сезон

Бесстыжие 9 сезон

Все сериалы

все сериалы на PB.wtf

RePack

FAR CRY 5
  

Душа компании / Life of the Party (Бен Фэлкоун) [2018, комедия, WEB-DLRip от R.G.Resident] MVO [HDRezka Studio] pb.wtf

Душа компании через торрент pb.wtf

Раздают: 1 [ 0 KB/s ]
Размер: 1.37 GB | Добавлен: 1 год 6 мес. назад | Торрент скачан:532 раза
Скачать  

30-06-2018 11:32 Душа компании Скачать торрент  

Душа компании / Life of the Party
««Give Life The Old College Try»»

Год выпуска: 2018
Страна: США
Жанр: комедия
Продолжительность: 01:44:45
Перевод: Профессиональный многоголосый [HDRezka Studio]
Режиссер: Бен Фэлкоун
В ролях:

Гиллиан Джейкобс (Helen), Мелисса МакКарти (Deanna), Дебби Райан (Jennifer), Адриа Архона (Amanda), Джули Боуэн (Marcie), Люк Бенвард (Jack), Молли Гордон (Maddie), Майя Рудольф (Christine), Стивен Рут (Mike), Крис Парнелл, Хайди Гарднер (Leonor), Кристина Агилера (Christina Aguilera)
Описание:
После неожиданного развода домохозяйка Диана решает перезапустить собственную жизнь и отправляется в колледж. Она попадает на один поток с родной дочерью, которая совсем не рада подобному повороту событий. Но Диану уже не остановить. С распростёртыми объятиями она принимает безумную студенческую жизнь.
Рейтинг:
rating
MPAA: PG-13 - Детям до 13 лет просмотр не желателен
Качество: WEB-DLRip
Формат: AVI
Видео: XviD, 688x288 (2.40:1), 1670 kbps, 23,976 fps, 0,352 bpp
Аудио: AC3 / 2.0 / 48 kHz / 192 kbps /

General
Complete name : F:\Life.of.the.Party.2018.MVO.WEB-DLRip.R.G.Resident.avi
Format : AVI
Format/Info : Audio Video Interleave
File size : 1.37 GiB
Duration : 1 h 44 min
Overall bit rate : 1 872 kb/s
Writing application : VirtualDubModRus 1.5.10.2 (build 2542/release)
Writing library : VirtualDubMod build 2542/release

Video
ID : 0
Format : MPEG-4 Visual
Format profile : Advanced Simple@L5
Format settings, BVOP : 1
Format settings, QPel : No
Format settings, GMC : No warppoints
Format settings, Matrix : Custom
Codec ID : XVID
Codec ID/Hint : XviD
Duration : 1 h 44 min
Bit rate : 1 671 kb/s
Width : 688 pixels
Height : 288 pixels
Display aspect ratio : 2.40:1
Frame rate : 23.976 (24000/1001) FPS
Color space : YUV
Chroma subsampling : 4:2:0
Bit depth : 8 bits
Scan type : Progressive
Compression mode : Lossy
Bits/(Pixel*Frame) : 0.352
Stream size : 1.22 GiB (89%)
Writing library : XviD 73

Audio
ID : 1
Format : AC-3
Format/Info : Audio Coding 3
Mode extension : CM (complete main)
Format settings, Endianness : Big
Codec ID : 2000
Duration : 1 h 44 min
Bit rate mode : Constant
Bit rate : 192 kb/s
Channel(s) : 2 channels
Channel positions : Front: L R
Sampling rate : 48.0 kHz
Frame rate : 31.250 FPS (1536 spf)
Compression mode : Lossy
Stream size : 144 MiB (10%)
Alignment : Split accross interleaves
Interleave, duration : 42 ms (1.00 video frame)
Interleave, preload duration : 500 ms
pb.wtf



Скачать Душа компании через торрент http://i77.fastpic.ru/big/2016/0417/a7/808a646271c761f7c7d87df3d366b3a7.png Скачать фильм Душа компании через торрент бесплантно в хорошем качестве Описание: После неожиданного развода домохозяйка Диана решает перезапустить собственную жизнь и отправляется в колледж. Она попадает на ... 9.3 10 11
Info! Золотая раздача, скачанное не засчитывается.
Торрент: Зарегистрирован [2018-06-30 11:32] · скачан: 532 раз
Статус: T временная
Размер: 1.37 GB
Как cкачать? Как скачать Душа компании через торрент | qTorrent

% Раздел Тема Автор DL S | L
T Фильмы 2018 [DVDrip, WEB-DLRip, HDrip] (DUB, MVO) [ 1.46 GB ] Душа компании / Life of the Party [2018 HDRip Чистый звук] PsYcho Скачать
4 | 0
T Ultra HD (UHD: 2K, 4K, 8K) — видео сверхвысокой чёткости [ 20.54 GB ] Душа компании / Life of the Party [2018 UHD WEBRip 2160p] DUB +MVO [HDrezka Studio] bober100 Скачать
1 | 0
T Фильмы (Blu-ray, BD-Remux, HDDVD) [ 24.47 GB ] Душа компании / Life of the Party [2018 BD Remux 1080p] MVO [HDrezka Studio] bober100 Скачать
1 | 0
T Фильмы 2018 [DVDrip, WEB-DLRip, HDrip] (DUB, MVO) [ 1.61 GB ] Душа компании / Life of the Party [2018 BDRip-AVC] MVO [HDrezka Studio] bober100 Скачать
2 | 0
T Фильмы (WEB-DL 720p, 1080p) [ 3.75 GB ] Душа компании / Life of the Party [2018 WEB-DL 1080p] MVO [HDrezka Studio] bober100 Скачать
3 | 0
T Фильмы с украинским озвучиванием [ 1.13 GB ] Душа компании / Life of the Party [2018 WEB-DLRip-AVC] [Ukr DUB] killermax2013 Скачать
1 | 0

28-11-2019 20:33  

Отключить всю рекламу на сайте

    Дорогой пользователь! Огромная просьба, поблагодарите релизера, оцените раздачу и оставьте свои комментарий, если Вы скачали Душа компании через торрент бесплатно! Внесите свою лепту в развитие PiratBit!
    Комментировать посты могут только пользователи прошедшие не сложную регистрацию
    Показать сообщения:    

    Душа компании через торрент
    Скачать бесплатно Душа компании
    Душа компании скачать торрент
    Душа компании смотреть онлайн
    Cкачать фильм Душа компании бесплатно
    Душа компании скачать торрент в хорошем качестве
    Душа компании смотреть онлайн бесплатно в хорошем качестве


    Вы не можете начинать темы
    Вы не можете отвечать на сообщения
    Вы не можете редактировать свои сообщения
    Вы не можете удалять свои сообщения
    Вы не можете голосовать в опросах
    Вы не можете прикреплять файлы к сообщениям
    Вы можете скачивать файлы