Ссылка на приватное зеркало нашего сайта всего за 1$. Внимание количество ограничено!!!

2 сезон

iTunes

1 сезон

1

2 сезон

2 сезон

iTunes

1 сезон

RePack

30

Новинка

ВАЖНО

ИГРА 18+

pack

RePack

MK11
pack

Забери бонус

RePack

jed

!!Акция!!

Alien_Rage

RePack

fifa19

RePack

Assassins Creed: Odyssey

RePack

NEED FOR SPEED™ PAYBACK

4 сезон

9 сезон

Бесстыжие 9 сезон

Все сериалы

все сериалы на PB.wtf

RePack

FAR CRY 5
  

Полуночники / Midnighters (Джулиус Рамсей) [2017, триллер, BDRip 1080p] DVO [HiWay Grope] pb.wtf

Полуночники через торрент pb.wtf

Размер: 7.46 GB | Добавлен: 2 года 4 мес. назад | Торрент скачан:64 раза
Скачать  

30-06-2018 12:39 Полуночники Скачать торрент  

Полуночники / Midnighters

Год выпуска: 2017
Страна: США
Жанр: триллер
Продолжительность: 01:33:37
Перевод: Любительский двухголосый [HiWay Grope]
Примечание: Релиз без рекламы
Субтитры: английские
Режиссер: Джулиус Рамсей
В ролях:

Александра Эссоу (Lindsey), Перла Аней-Жардине (Hannah), Дилан МакТи (Jeff), Уорд Хортон (Smith), Эндрю Ротенберг (Officer Verone), Джозеф Андерсон (Officer Campbell), К.С. Фальдаш (Vic), Уильям Блумфилд (Hotel Attendant), David Spadora (Mike), Matt Myers (Singer), Ральф Петрарка (Announcer), Bob DeCurtis (Motorcycle Driver)
Описание:
Возвращаясь на машине с новогоднего корпоратива, Линдси и Джэфф сбивают незнакомца на пустынной дороге. Телефон там не ловит, поэтому они затаскивают пострадавшего в машину и везут в больницу, но по дороге бедолага перестаёт дышать. Тогда парочка решает протрезветь, прежде чем сдаться полиции, и отвозит тело к себе в гараж. Тем временем младшая сестра Линдси приходит домой, и на нее нападает оказавшийся живым сбитый незнакомец.
Рейтинг:
rating
Качество: BDRip 1080p
Формат: MKV
Видео: AVC, 1920x800 (2.40:1), 9548 kbps, 23,976 fps, 0,259 bpp
Аудио №1: русский / AC3 / 5.1 / 48 kHz / 384 kbps / |DVO|
Аудио №2: английский / DTS / 5.1 / 48 kHz / 1509 kbps / 24 bit
Навигация по главам: есть

General
Unique ID : 248129921905249154139082362420027357713 (0xBAAC15ACE7CEEA44AF11EA7F151E7A11)
Complete name : F:\Полуночники_Midnighters (2017) BDRip.1080p.NNMClub.mkv
Format : Matroska
Format version : Version 4 / Version 2
File size : 7.46 GiB
Duration : 1 h 33 min
Overall bit rate : 11.4 Mb/s
Movie name : Полуночники_Midnighters (2017) BDRip.1080p.NNMClub
Encoded date : UTC 2018-06-30 03:34:51
Writing application : mkvmerge v18.0.0 ('Apricity') 64-bit
Writing library : libebml v1.3.5 + libmatroska v1.4.8

Video
ID : 1
Format : AVC
Format/Info : Advanced Video Codec
Format profile : High@L4.1
Format settings, CABAC : Yes
Format settings, ReFrames : 5 frames
Codec ID : V_MPEG4/ISO/AVC
Duration : 1 h 33 min
Bit rate : 9 548 kb/s
Width : 1 920 pixels
Height : 800 pixels
Display aspect ratio : 2.40:1
Frame rate mode : Constant
Frame rate : 23.976 (24000/1001) FPS
Color space : YUV
Chroma subsampling : 4:2:0
Bit depth : 8 bits
Scan type : Progressive
Bits/(Pixel*Frame) : 0.259
Stream size : 6.08 GiB (81%)
Title : Полуночники_Midnighters (2017) BDRip.1080p.NNMClub
Writing library : x264 core 155 r2901 7d0ff22
Encoding settings : cabac=1 / ref=5 / deblock=1:-3:-3 / analyse=0x3:0x113 / me=umh / subme=10 / psy=1 / psy_rd=1.05:0.10 / mixed_ref=1 / me_range=48 / chroma_me=1 / trellis=2 / 8x8dct=1 / cqm=0 / deadzone=21,11 / fast_pskip=0 / chroma_qp_offset=-2 / threads=12 / lookahead_threads=1 / sliced_threads=0 / nr=0 / decimate=1 / interlaced=0 / bluray_compat=0 / constrained_intra=0 / bframes=6 / b_pyramid=2 / b_adapt=2 / b_bias=0 / direct=3 / weightb=1 / open_gop=0 / weightp=2 / keyint=250 / keyint_min=23 / scenecut=40 / intra_refresh=0 / rc=2pass / mbtree=0 / bitrate=9548 / ratetol=2.0 / qcomp=0.70 / qpmin=0 / qpmax=69 / qpstep=4 / cplxblur=20.0 / qblur=0.5 / ip_ratio=1.40 / pb_ratio=1.30 / aq=3:1.00
Language : English
Default : Yes
Forced : No

Audio #1
ID : 2
Format : AC-3
Format/Info : Audio Coding 3
Mode extension : CM (complete main)
Format settings, Endianness : Big
Codec ID : A_AC3
Duration : 1 h 33 min
Bit rate mode : Constant
Bit rate : 384 kb/s
Channel(s) : 6 channels
Channel positions : Front: L C R, Side: L R, LFE
Sampling rate : 48.0 kHz
Frame rate : 31.250 FPS (1536 spf)
Compression mode : Lossy
Stream size : 257 MiB (3%)
Title : DVO (HiWay Grope)
Language : Russian
Default : Yes
Forced : No

Audio #2
ID : 3
Format : DTS
Format/Info : Digital Theater Systems
Mode : 16
Format settings, Endianness : Big
Codec ID : A_DTS
Duration : 1 h 33 min
Bit rate mode : Constant
Bit rate : 1 509 kb/s
Channel(s) : 6 channels
Channel positions : Front: L C R, Side: L R, LFE
Sampling rate : 48.0 kHz
Frame rate : 93.750 FPS (512 spf)
Bit depth : 24 bits
Compression mode : Lossy
Stream size : 1 010 MiB (13%)
Language : English
Default : No
Forced : No

Text
ID : 4
Format : UTF-8
Codec ID : S_TEXT/UTF8
Codec ID/Info : UTF-8 Plain Text
Language : English
Default : No
Forced : No

Menu
00:00:00.000 : en:00:00:00.000
00:09:29.611 : en:00:09:29.611
00:19:17.573 : en:00:19:17.573
00:25:08.132 : en:00:25:08.132
00:31:17.292 : en:00:31:17.292
00:42:04.689 : en:00:42:04.689
00:48:17.520 : en:00:48:17.520
00:53:24.535 : en:00:53:24.535
01:00:46.351 : en:01:00:46.351
01:10:13.167 : en:01:10:13.167
01:20:21.066 : en:01:20:21.066
01:30:46.024 : en:01:30:46.024
pb.wtf



Скачать Полуночники через торрент http://i104.fastpic.ru/big/2018/0630/84/e6f15f05c263ac224b35a761602eb984.jpg Скачать фильм Полуночники через торрент бесплантно в хорошем качестве Описание: Возвращаясь на машине с новогоднего корпоратива, Линдси и Джэфф сбивают незнакомца на пустынной дороге. Телефон там не ловит, ... 8.7 10 6
Торрент: Зарегистрирован [2018-06-30 12:39] · скачан: 64 раз
Статус: T временная
Размер: 7.46 GB
Как cкачать? Как скачать Полуночники через торрент | qTorrent

% Раздел Тема Автор DL S | L
T Фильмы (мультфильмы) cо спонсором показа (Новинки AVI/MKV) [ 4.82 GB ] Полуночники / Midnighters [2017 BDRip 720p] MVO ["Синема УС"] bober100 Скачать
1 | 0
T Фильмы (мультфильмы) cо спонсором показа (Новинки AVI/MKV) [ 1.33 GB ] Полуночники / Midnighters [2017 HDRip] MVO ["Синема УС"] bober100 Скачать
1 | 0

28-11-2019 20:33  

Отключить всю рекламу на сайте

    Дорогой пользователь! Огромная просьба, поблагодарите релизера, оцените раздачу и оставьте свои комментарий, если Вы скачали Полуночники через торрент бесплатно! Внесите свою лепту в развитие PiratBit!
    Комментировать посты могут только пользователи прошедшие не сложную регистрацию
    Показать сообщения:    

    Полуночники через торрент
    Скачать бесплатно Полуночники
    Полуночники скачать торрент
    Полуночники смотреть онлайн
    Cкачать фильм Полуночники бесплатно
    Полуночники скачать торрент в хорошем качестве
    Полуночники смотреть онлайн бесплатно в хорошем качестве


    Вы не можете начинать темы
    Вы не можете отвечать на сообщения
    Вы не можете редактировать свои сообщения
    Вы не можете удалять свои сообщения
    Вы не можете голосовать в опросах
    Вы не можете прикреплять файлы к сообщениям
    Вы можете скачивать файлы