Ссылка на приватное зеркало нашего сайта всего за 1$. Внимание количество ограничено!!!

2 сезон

iTunes

1 сезон

1

2 сезон

2 сезон

iTunes

1 сезон

RePack

30

Ultimate

ВАЖНО

ИГРА 18+

pack

RePack

MK11
pack

Забери бонус

RePack

jed

!!Акция!!

Alien_Rage

RePack

fifa19

RePack

Assassins Creed: Odyssey

RePack

NEED FOR SPEED™ PAYBACK

4 сезон

9 сезон

Бесстыжие 9 сезон

Все сериалы

все сериалы на PB.wtf

RePack

FAR CRY 5
  

Люк Кейдж / Luke Cage / Сезон: 2 / Серии 1-13 из 13 (Адам Кэйн, Крис Мисиано) [2018, Фантастика, боевик, триллер, драма, криминал, WEBRip 1080p] [MVO] (Jaskier) pb.wtf

Люк Кейдж через торрент pb.wtf

Размер: 21.4 GB | Добавлен: 2 года 4 мес. назад | Торрент скачан:18 раз
Скачать  

30-06-2018 19:38 Люк Кейдж Скачать торрент  

Люк Кейдж / Luke Cage

Год выпуска: 2018
Страна: США
Жанр: Фантастика, боевик, триллер, драма, криминал
Продолжительность: ~ 01:00:00
Перевод: Профессиональный (многоголосый закадровый) | Jaskier

Режиссёр: Пол МакГиган, Энди Годдар, Марк Йобст

В ролях:Махершала Али, Майк Колтер, Фрэнки Фэйзон, Эрик Ларей Харви, Дариус Калеб, Симона Кук, Тео Росси, Фрэнк Уэйли

Описание: Оказавшись по ложному обвинению в тюрьме, Карл Лукас становится невольным участником научного эксперимента, в результате которого он обрел огромную силу и пуленепробиваемую кожу. Эксперимент завершился разгромом лаборатории, и Карл смог сбежать. Поскольку он все еще разыскивается, Карл берет новое имя — Люк Кейдж — и возвращается в родной Гарлем. Он живет тихо, старается не привлекать к себе внимания. Люк Кейдж — обычный парень, который работает уборщиком в парикмахерской «У Папаши». Однако в районе все неспокойно. Многочисленные разборки, грабежи и вымогательства, в которых замешаны криминальные бароны и их банды, а также коррупционные политики — от всего этого страдают жители Гарлема. Люк должен сделать выбор — стоит ли продолжать скрываться, ведь у Люка есть свои скелеты в шкафу или же вмешаться и помочь...



Качество: WEBRip 1080p
Формат: MKV
Видео: 1920x1080 (16:9) | X264 | ~3480 kbps | 23.976 fps
Аудио 1: AC3, 48,0 КГц, 6 ch, 384 kbps - [RUS]
Аудио 2: AC3, 48,0 КГц, 6 ch, 384 kbps - [ENG]
Переведено и озвучено: студией Jaskier
Общее
Уникальный идентификатор                 : 256236471527367044563360152913289195835 (0xC0C5596E1351E81FE38BAD8528D8B13B)
Полное имя                               : F:\Jaskier\Luke.Cage Season 2 (WEBRip l 1080p l Jaskier)\Luke.Cage.S02E01.WEBRip.1080p.Jaskier.mkv
Формат                                   : Matroska
Версия формата                           : Version 4 / Version 2
Размер файла                             : 1,65 Гбайт
Продолжительность                        : 56 м. 11 с.
Режим общего битрейта                    : Переменный
Общий поток                              : 4195 Кбит/сек
Дата кодирования                         : UTC 2018-06-30 12:44:47
Программа кодирования                    : mkvmerge v19.0.0 ('Brave Captain') 64-bit
Библиотека кодирования                   : libebml v1.3.5 + libmatroska v1.4.8

Видео
Идентификатор                            : 1
Формат                                   : AVC
Формат/Информация                        : Advanced Video Codec
Профиль формата                          : Main@L4
Настройки формата                        : CABAC / 3 Ref Frames
Параметр CABAC формата                   : Да
Параметр RefFrames формата               : 3 кадра
Идентификатор кодека                     : V_MPEG4/ISO/AVC
Продолжительность                        : 56 м. 11 с.
Вид битрейта                             : Переменный
Битрейт                                  : 3480 Кбит/сек
Максимальный битрейт                     : 5220 Кбит/сек
Ширина                                   : 1920 пикселей
Высота                                   : 1080 пикселей
Соотношение сторон                       : 16:9
Режим частоты кадров                     : Постоянный
Частота кадров                           : 23,976 (24000/1001) кадра/сек
Цветовое пространство                    : YUV
Субдискретизация насыщенности            : 4:2:0
Битовая глубина                          : 8 бит
Тип развёртки                            : Прогрессивная
Бит/(Пиксели*Кадры)                      : 0.070
Размер потока                            : 1,32 Гбайт (80%)
Библиотека кодирования                   : x264 core 148 r2715 7e75228
Настройки программы                      : cabac=1 / ref=3 / deblock=1:0:0 / analyse=0x1:0x111 / me=umh / subme=10 / psy=1 / psy_rd=1.00:0.00 / mixed_ref=1 / me_range=24 / chroma_me=1 / trellis=2 / 8x8dct=0 / cqm=0 / deadzone=21,11 / fast_pskip=1 / chroma_qp_offset=-2 / threads=6 / lookahead_threads=1 / sliced_threads=0 / nr=0 / decimate=1 / interlaced=0 / bluray_compat=0 / stitchable=1 / constrained_intra=0 / bframes=2 / b_pyramid=0 / b_adapt=2 / b_bias=0 / direct=3 / weightb=1 / open_gop=0 / weightp=2 / keyint=48 / keyint_min=25 / scenecut=0 / intra_refresh=0 / rc_lookahead=48 / rc=2pass / mbtree=1 / bitrate=3480 / ratetol=1.0 / qcomp=0.50 / qpmin=6 / qpmax=51 / qpstep=4 / cplxblur=20.0 / qblur=0.5 / vbv_maxrate=5220 / vbv_bufsize=6960 / nal_hrd=vbr / filler=0 / ip_ratio=1.40 / aq=1:1.00
Default                                  : Да
Forced                                   : Нет

Аудио #1
Идентификатор                            : 2
Формат                                   : AC-3
Формат/Информация                        : Audio Coding 3
Идентификатор кодека                     : A_AC3
Продолжительность                        : 55 м. 29 с.
Вид битрейта                             : Постоянный
Битрейт                                  : 384 Кбит/сек
Каналы                                   : 6 каналов
Расположение каналов                     : Front: L C R, Side: L R, LFE
Частота                                  : 48,0 КГц
Частота кадров                           : 31,250 кадров/сек (1536 SPF)
Битовая глубина                          : 16 бит
Метод сжатия                             : С потерями
Размер потока                            : 152 Мбайт (9%)
Язык                                     : Russian
ServiceKind/String                       : Complete Main
Default                                  : Да
Forced                                   : Нет

Аудио #2
Идентификатор                            : 3
Формат                                   : E-AC-3
Формат/Информация                        : Enhanced Audio Coding 3
Профиль формата                          : E-AC-3+Atmos / E-AC-3
Идентификатор кодека                     : A_EAC3
Продолжительность                        : 55 м. 16 с.
Вид битрейта                             : Постоянный
Битрейт                                  : 448 Кбит/сек
Каналы                                   : 15 objects / 6 каналов
Расположение каналов                     : 15 objects / Front: L C R, Side: L R, LFE
Частота                                  : 48,0 КГц
Частота кадров                           : 187,500 кадров/сек (256 SPF)
Метод сжатия                             : С потерями
Размер потока                            : 177 Мбайт (11%)
Язык                                     : English
ServiceKind/String                       : Complete Main
Default                                  : Нет
Forced                                   : Нет
скриншот  скриншот  скриншот  
pb.wtf



Скачать Люк Кейдж через торрент http://i105.fastpic.ru/big/2018/0630/48/cca654b4f5ec59dc97007d99480ea348.png Скачать фильм Люк Кейдж через торрент бесплантно в хорошем качестве Описание: Оказавшись по ложному обвинению в тюрьме, Карл Лукас становится невольным участником научного эксперимента, в результате которого ... 10 10 2
Торрент: Зарегистрирован [2018-06-30 19:38] · скачан: 18 раз
Статус: √ проверено
Размер: 21.4 GB
Как cкачать? Как скачать Люк Кейдж через торрент | qTorrent

% Раздел Тема Автор DL S | L
Зарубежные сериалы [ 9.42 GB ] Люк Кейдж / Luke Cage / Сезон: 2 / Серии: 1-13 из 13 [2018 WEB-DLRip] MVO [NewStudio] bober100 Скачать
1 | 0
Зарубежные сериалы [ 21.71 GB ] Люк Кейдж / Luke Cage / Сезон: 2 / Серии 1-13 из 13 [2018 WEB-DLRip 1080p] [MVO] killermax2013 Скачать
1 | 0
Зарубежные сериалы [ 136.72 GB ] Люк Кейдж / Luke Cage / Сезон: 2 / Серии: 1-13 из 13 [2018 UHD WEBRip 2160p] 2xMVO sheker187 Скачать
1 | 0
Зарубежные сериалы [ 12.56 GB ] Люк Кейдж / Luke Cage / Сезон: 2 / Серии 1-13 из 13 [2018 WEBRip 720p] [MVO] killermax2013 Скачать
1 | 0
Зарубежные сериалы [ 9.53 GB ] Люк Кейдж / Luke Cage / Сезон: 2 / Серии 1-13 из 13 [2018 WEBRip] [MVO] killermax2013 Скачать
1 | 0
Зарубежные сериалы [ 7.39 GB ] Люк Кейдж / Luke Cage / Сезон: 2 / Серии 1-13 из 13 [2018 WEBRip] [MVO] killermax2013 Скачать
1 | 0
Зарубежные сериалы [ 8.23 GB ] Люк Кейдж / Luke Cage / Сезон: 2 / Серии 1-13 из 13 [2018 WEBRip] [DVO] killermax2013 Скачать
1 | 0

28-11-2019 20:33  

Отключить всю рекламу на сайте

    Дорогой пользователь! Огромная просьба, поблагодарите релизера, оцените раздачу и оставьте свои комментарий, если Вы скачали Люк Кейдж через торрент бесплатно! Внесите свою лепту в развитие PiratBit!
    Комментировать посты могут только пользователи прошедшие не сложную регистрацию
    Показать сообщения:    

    Люк Кейдж через торрент
    Скачать бесплатно Люк Кейдж
    Люк Кейдж скачать торрент
    Люк Кейдж смотреть онлайн
    Cкачать фильм Люк Кейдж бесплатно
    Люк Кейдж скачать торрент в хорошем качестве
    Люк Кейдж смотреть онлайн бесплатно в хорошем качестве


    Вы не можете начинать темы
    Вы не можете отвечать на сообщения
    Вы не можете редактировать свои сообщения
    Вы не можете удалять свои сообщения
    Вы не можете голосовать в опросах
    Вы не можете прикреплять файлы к сообщениям
    Вы можете скачивать файлы