Ссылка на приватное зеркало нашего сайта всего за 1$. Внимание количество ограничено!!!

2 сезон

iTunes

1 сезон

1

iTunes

iTunes

iTunes

1 сезон

RePack

30

ИГРА 18+

pack

ВАЖНО

!!Акция!!

Alien_RageХит недели

RePack

MK11
pack

Забери бонус

RePack

jed

!!Акция!!

Alien_Rage

RePack

fifa19

RePack

Assassins Creed: Odyssey

RePack

NEED FOR SPEED™ PAYBACK

4 сезон

9 сезон

Бесстыжие 9 сезон

Все сериалы

все сериалы на PB.wtf

RePack

FAR CRY 5
  

Садовое кольцо / Сезон: 1 / Серии: 1-12 из 12 (Алексей Смирнов) [2018, Мелодрама, HDTVRip] pb.wtf

Садовое кольцо через торрент pb.wtf

Размер: 8.76 GB | Добавлен: 2 года 3 мес. назад | Торрент скачан:94 раза
Скачать  

01-07-2018 07:35 Садовое кольцо Скачать торрент  

Садовое кольцо
Год выпуска: 2018
Страна: Россия
Жанр: Мелодрама
Продолжительность: ~ 00:44:00
Субтитры: отсутствуют

Режиссер: Алексей Смирнов



В ролях:

Мария Миронова, Анатолий Белый, Евгения Брик, Петар Зекавица, Ирина Розанова, Илья Мирошников, Мария Голубкина, Максим Виторган, Юлия Ауг, Фёдор Лавров, Александра Ребенок, Виктор Буй, Ксения Щербакова, Николай Шрайбер, Авдотья Смирнова, Виктор Грудев, Руслан Аскеров, Константин Чепурин, Дмитрий Горевой, Виктория Корлякова, Дмитрий Фрид, Евгения Калинец, Екатерина Васильева

Описание:

Вере Смолиной можно только позавидовать. У нее идеальная семья. В ее доме царит любовь, согласие и счастье. Пока в один прекрасный день не исчезает ее сын Илья. Казалось бы, что могло случиться в безоблачной вселенной Веры? Пытаясь понять, что произошло с Ильей, не смотря на неверие в нее окружающих, Вера начинает свое собственное расследование. И обнаруживает, что привычный мир, который окружает ее — совсем не таков, каким казался ей многие годы.

Качество: HDTVRip
Формат: AVI

Видео: XviD, ~ 1800 Кбит/с, 720x400
Аудио: Русский (AC3, 2 ch, 192 Кбит/с)
скриншот   скриншот   скриншот   скриншот  

Общее
Полное имя : D:\Sadovoe kolco.HDTVRip.GeneralFilm\12.Sadovoe kolco.HDTVRip.GeneralFilm.avi
Формат : AVI
Формат/Информация : Audio Video Interleave
Размер файла : 792 Мбайт
Продолжительность : 55 м. 20 с.
Общий поток : 2001 Кбит/сек
Программа кодирования : VirtualDubMod 1.5.10.3 | www.virtualdub-fr.org || (build 2550/release)
Библиотека кодирования : VirtualDubMod build 2550/release

Видео
Идентификатор : 0
Формат : MPEG-4 Visual
Профиль формата : Advanced Simple@L5
Параметр BVOP формата : 1
Параметр QPel формата : Нет
Параметр GMC формата : Без точки перехода
Параметр матрицы формата : Выборочная
Идентификатор кодека : XVID
Идентификатор кодека/Подсказка : XviD
Продолжительность : 55 м. 20 с.
Битрейт : 1800 Кбит/сек
Ширина : 720 пикселей
Высота : 400 пикселей
Соотношение сторон : 16:9
Частота кадров : 25,000 кадров/сек
Цветовое пространство : YUV
Субдискретизация насыщенности : 4:2:0
Битовая глубина : 8 бит
Тип развёртки : Прогрессивная
Метод сжатия : С потерями
Бит/(Пиксели*Кадры) : 0.250
Размер потока : 712 Мбайт (90%)
Библиотека кодирования : XviD 73

Аудио
Идентификатор : 1
Формат : AC-3
Формат/Информация : Audio Coding 3
Расширение режима : CM (complete main)
Параметр Endianness формата : Big
Идентификатор кодека : 2000
Продолжительность : 55 м. 20 с.
Вид битрейта : Постоянный
Битрейт : 192 Кбит/сек
Каналы : 2 канала
Расположение каналов : Front: L R
Частота : 48,0 КГц
Частота кадров : 31,250 кадров/сек (1536 spf)
Метод сжатия : С потерями
Размер потока : 76,0 Мбайт (10%)
Выравнивание : Разделение по промежуткам
Продолжительность промежутка : 40 мс. (1,00 видеокадр)
Время предзагрузки промежутка : 500 мс.

pb.wtf



Скачать Садовое кольцо через торрент http://img11.lostpic.net/2018/07/01/deecfacd08419e23004f2f563b240373.jpg Скачать фильм Садовое кольцо через торрент бесплантно в хорошем качестве Описание: Вере Смолиной можно только позавидовать. У нее идеальная семья. В ее доме царит любовь, согласие и счастье. Пока в один ... 10 10 3
Торрент: Зарегистрирован [2018-07-01 07:35] · скачан: 94 раз
Статус: √ проверено
Размер: 8.76 GB
Как cкачать? Как скачать Садовое кольцо через торрент | qTorrent

% Раздел Тема Автор DL S | L
Наши сериалы [ 16.12 GB ] Садовое кольцо / Сезон: 1 / Серии: 1-12 из 12 [2018 Мело HDTVRip 720p] bober100 Скачать
1 | 0
Наши сериалы [ 27.09 GB ] Садовое кольцо / Сезон: 1 / Серии: 1-12 из 12 [2018 Мело HDTV 1080i] bober100 Скачать
1 | 0
Наши сериалы [ 9.08 GB ] Садовое кольцо / Сезон: 1 / Серии: 1-12 из 12 [2018 Мело SATRip] bober100 Скачать
1 | 0

28-11-2019 20:33  

Отключить всю рекламу на сайте

    Дорогой пользователь! Огромная просьба, поблагодарите релизера, оцените раздачу и оставьте свои комментарий, если Вы скачали Садовое кольцо через торрент бесплатно! Внесите свою лепту в развитие PiratBit!
    Комментировать посты могут только пользователи прошедшие не сложную регистрацию
    Показать сообщения:    

    Садовое кольцо через торрент
    Скачать бесплатно Садовое кольцо
    Садовое кольцо скачать торрент
    Садовое кольцо смотреть онлайн
    Cкачать фильм Садовое кольцо бесплатно
    Садовое кольцо скачать торрент в хорошем качестве
    Садовое кольцо смотреть онлайн бесплатно в хорошем качестве


    Вы не можете начинать темы
    Вы не можете отвечать на сообщения
    Вы не можете редактировать свои сообщения
    Вы не можете удалять свои сообщения
    Вы не можете голосовать в опросах
    Вы не можете прикреплять файлы к сообщениям
    Вы можете скачивать файлы