Ссылка на приватное зеркало нашего сайта всего за 1$. Внимание количество ограничено!!!

2 сезон

iTunes

1 сезон

1

iTunes

iTunes

iTunes

1 сезон

RePack

30

ИГРА 18+

pack

ВАЖНО

!!Акция!!

Alien_RageХит недели

RePack

MK11
pack

Забери бонус

RePack

jed

!!Акция!!

Alien_Rage

RePack

fifa19

RePack

Assassins Creed: Odyssey

RePack

NEED FOR SPEED™ PAYBACK

4 сезон

9 сезон

Бесстыжие 9 сезон

Все сериалы

все сериалы на PB.wtf

RePack

FAR CRY 5
  

Садовое кольцо / Сезон: 1 / Серии: 1-12 из 12 (Алексей Смирнов) [2018, Мелодрама, HDTV 1080i] pb.wtf

Садовое кольцо через торрент pb.wtf

Раздают: 1 [ 0 KB/s ]
Размер: 27.09 GB | Добавлен: 2 года 3 мес. назад | Торрент скачан:32 раза
Скачать  

01-07-2018 07:48 Садовое кольцо Скачать торрент  

Садовое кольцо
Год выпуска: 2018
Страна: Россия
Жанр: Мелодрама
Продолжительность: ~ 00:44:00
Субтитры: отсутствуют

Режиссер: Алексей Смирнов



В ролях:

Мария Миронова, Анатолий Белый, Евгения Брик, Петар Зекавица, Ирина Розанова, Илья Мирошников, Мария Голубкина, Максим Виторган, Юлия Ауг, Фёдор Лавров, Александра Ребенок, Виктор Буй, Ксения Щербакова, Николай Шрайбер, Авдотья Смирнова, Виктор Грудев, Руслан Аскеров, Константин Чепурин, Дмитрий Горевой, Виктория Корлякова, Дмитрий Фрид, Евгения Калинец, Екатерина Васильева

Описание:

Вере Смолиной можно только позавидовать. У нее идеальная семья. В ее доме царит любовь, согласие и счастье. Пока в один прекрасный день не исчезает ее сын Илья. Казалось бы, что могло случиться в безоблачной вселенной Веры? Пытаясь понять, что произошло с Ильей, не смотря на неверие в нее окружающих, Вера начинает свое собственное расследование. И обнаруживает, что привычный мир, который окружает ее — совсем не таков, каким казался ей многие годы.

Качество: HDTV 1080i
Формат: MPEG-TS

Видео: AVC, ~ 5000 Кбит/с, 1920x1080
Аудио#1: Русский (AC3, 6 ch, 384 Кбит/с)
Аудио#2: Русский (MP2, 2 ch, 192 Кбит/с)
скриншот   скриншот   скриншот   скриншот  

Общее
Идентификатор : 1 (0x1)
Полное имя : D:\Sadovoe kolco.HDTV(1080i).GeneralFilm\01.Sadovoe kolco.HDTV(1080i).GeneralFilm.ts
Формат : MPEG-TS
Размер файла : 1,96 Гбайт
Продолжительность : 50 м. 23 с.
Режим общего битрейта : Переменный
Общий поток : 5564 Кбит/сек

Видео
Идентификатор : 4121 (0x1019)
Идентификатор меню : 80 (0x50)
Формат : AVC
Формат/Информация : Advanced Video Codec
Профиль формата : High@L4
Параметр CABAC формата : Да
Параметр RefFrames формата : 3 кадра
Идентификатор кодека : 27
Продолжительность : 50 м. 23 с.
Битрейт : 4707 Кбит/сек
Ширина : 1920 пикселей
Высота : 1080 пикселей
Соотношение сторон : 16:9
Частота кадров : 25,000 кадров/сек
Стандарт вещания : Component
Цветовое пространство : YUV
Субдискретизация насыщенности : 4:2:0
Битовая глубина : 8 бит
Тип развёртки : Чересстрочная
Метод сохранения типа развёртки : Раздельные поля
Порядок развёртки : Верхнее поле первое
Бит/(Пиксели*Кадры) : 0.091
Размер потока : 1,66 Гбайт (85%)
Цветовой диапазон : Limited
Основные цвета : BT.709
Характеристики трансфера : BT.709
Коэффициенты матрицы : BT.709

Аудио #1
Идентификатор : 4124 (0x101C)
Идентификатор меню : 80 (0x50)
Формат : AC-3
Формат/Информация : Audio Coding 3
Расширение режима : CM (complete main)
Параметр Endianness формата : Big
Идентификатор кодека : 6
Продолжительность : 50 м. 23 с.
Вид битрейта : Постоянный
Битрейт : 384 Кбит/сек
Каналы : 6 каналов
Расположение каналов : Front: L C R, Side: L R, LFE
Частота : 48,0 КГц
Частота кадров : 31,250 кадров/сек (1536 spf)
Метод сжатия : С потерями
Задержка видео : -80 мс.
Размер потока : 138 Мбайт (7%)
Язык : Russian

Аудио #2
Идентификатор : 4125 (0x101D)
Идентификатор меню : 80 (0x50)
Формат : MPEG Audio
Версия формата : Version 1
Профиль формата : Layer 2
Идентификатор кодека : 3
Продолжительность : 50 м. 23 с.
Вид битрейта : Постоянный
Битрейт : 192 Кбит/сек
Каналы : 2 канала
Частота : 48,0 КГц
Метод сжатия : С потерями
Задержка видео : -80 мс.
Размер потока : 69,2 Мбайт (3%)
Язык : Russian

pb.wtf



Скачать Садовое кольцо через торрент http://img11.lostpic.net/2018/07/01/deecfacd08419e23004f2f563b240373.jpg Скачать фильм Садовое кольцо через торрент бесплантно в хорошем качестве Описание: Вере Смолиной можно только позавидовать. У нее идеальная семья. В ее доме царит любовь, согласие и счастье. Пока в один ... 10 10 2
Info! Золотая раздача, скачанное не засчитывается.
Торрент: Зарегистрирован [2018-07-01 07:48] · скачан: 32 раз
Статус: √ проверено
Размер: 27.09 GB
Как cкачать? Как скачать Садовое кольцо через торрент | qTorrent

% Раздел Тема Автор DL S | L
Наши сериалы [ 16.12 GB ] Садовое кольцо / Сезон: 1 / Серии: 1-12 из 12 [2018 Мело HDTVRip 720p] bober100 Скачать
1 | 0
Наши сериалы [ 8.76 GB ] Садовое кольцо / Сезон: 1 / Серии: 1-12 из 12 [2018 Мело HDTVRip] bober100 Скачать
1 | 0
Наши сериалы [ 9.08 GB ] Садовое кольцо / Сезон: 1 / Серии: 1-12 из 12 [2018 Мело SATRip] bober100 Скачать
1 | 0

28-11-2019 20:33  

Отключить всю рекламу на сайте

    Дорогой пользователь! Огромная просьба, поблагодарите релизера, оцените раздачу и оставьте свои комментарий, если Вы скачали Садовое кольцо через торрент бесплатно! Внесите свою лепту в развитие PiratBit!
    Комментировать посты могут только пользователи прошедшие не сложную регистрацию
    Показать сообщения:    

    Садовое кольцо через торрент
    Скачать бесплатно Садовое кольцо
    Садовое кольцо скачать торрент
    Садовое кольцо смотреть онлайн
    Cкачать фильм Садовое кольцо бесплатно
    Садовое кольцо скачать торрент в хорошем качестве
    Садовое кольцо смотреть онлайн бесплатно в хорошем качестве


    Вы не можете начинать темы
    Вы не можете отвечать на сообщения
    Вы не можете редактировать свои сообщения
    Вы не можете удалять свои сообщения
    Вы не можете голосовать в опросах
    Вы не можете прикреплять файлы к сообщениям
    Вы можете скачивать файлы