Ссылка на приватное зеркало нашего сайта всего за 1$. Внимание количество ограничено!!!

2 сезон

iTunes

1 сезон

1

2 сезон

2 сезон

iTunes

1 сезон

RePack

30

Ultimate

ВАЖНО

ИГРА 18+

pack

RePack

MK11
pack

Забери бонус

RePack

jed

!!Акция!!

Alien_Rage

RePack

fifa19

RePack

Assassins Creed: Odyssey

RePack

NEED FOR SPEED™ PAYBACK

4 сезон

9 сезон

Бесстыжие 9 сезон

Все сериалы

все сериалы на PB.wtf

RePack

FAR CRY 5
  

Взрыватель / Knock Off (Цуй Харк) [1998, боевик, триллер, комедия, BDRemux 1080p] MVO + 3xAVO pb.wtf

Взрыватель через торрент pb.wtf

Размер: 17.57 GB | Добавлен: 2 года 5 мес. назад | Торрент скачан:12 раз
Скачать  

01-07-2018 12:42 Взрыватель Скачать торрент  

Взрыватель / Knock Off

Год выпуска: 1998
Страна: Аруба, Гонконг, США
Жанр: боевик, триллер, комедия
Продолжительность:
Перевод: Профессиональный многоголосый, авторский
Субтитры: Русские, английские
Режиссер: Цуй Харк
В ролях:

Жан-Клод Ван Дамм (Marcus Ray), Роб Шнайдер (Tommy Hendricks), Лела Рошон (Karen Lee), Пол Сорвино (Harry Johanson), Карман Ли (Detective Ling Ho), Уаймэн Вонг (Eddie Wang), Глен Чин (Skinny), Майкл Вон (Han), Мозес Чан (Officer Fong), Линн Лэнгдон (V-Six Secretary), Рэй Николас (Karl), Джефф Вульф (Skaar)
Описание:
1997 год. Гонконг - центр подделок. Русские террористы из спецслужб задумали операцию по глобальному шантажу США. Войдя в сговор с мафией, «гастролеры» из России напичкали миниатюрными дистанционными взрывателями поддельные товары - игрушки и джинсы, которые должны были попасть в Штаты. Маркус Рей и его компаньон Томми Хендрик занимались поставкой товаров в США и попали прямо в центр событий, когда взялись за расследование о поддельных джинсах, которое вывело их на террористов...
Рейтинг:

MPAA: R - Лицам до 17 лет обязательно присутствие взрослого
Качество: BDRemux 1080p
Формат: MKV
Видео: MPEG-4 AVC, 22 Мбит/с, 1920x1080, 24.000 fps
Аудио #01: Russian: 48 kHz, AC3 5.1, 3/2 (L,C,R,l,r) + LFE ch, ~384 kbps |Многоголосый закадровый, Екатеринбург Арт|
Аудио #02: Russian: 48 kHz, AC3 5.1, 3/2 (L,C,R,l,r) + LFE ch, ~640 kbps |Одноголосый закадровый, А.Гаврилов|
Аудио #03: Russian: 48 kHz, AC3 5.1, 3/2 (L,C,R,l,r) + LFE ch, ~640 kbps |Одноголосый закадровый, Ю.Живов|
Аудио #04: Russian: 48 kHz, DTS-HD Master 5.1, ~3071 kbps |Одноголосый закадровый, М. Яроцкий|
Аудио #05: English: 48 kHz, DTS-HD Master 5.1, ~3104 kbps
Навигация по главам: есть
General
Unique ID : 243944057694209037178003391928892027820 (0xB785EAA2D0A6F48B8952D0CA2E5E73AC)
Complete name : D:\Video\Knock Off.(1998).BD-Remux.mkv
Format : Matroska
Format version : Version 4 / Version 2
File size : 17.6 GiB
Duration : 1h 30mn
Overall bit rate mode : Variable
Overall bit rate : 27.9 Mbps
Encoded date : UTC 2018-06-30 22:14:13
Writing application : mkvmerge v6.1.0 ('Old Devil') built on Mar 2 2013 14:32:37
Writing library : libebml v1.3.0 + libmatroska v1.4.0

Video
ID : 1
Format : AVC
Format/Info : Advanced Video Codec
Format profile : High@L4.1
Format settings, CABAC : Yes
Format settings, ReFrames : 3 frames
Codec ID : V_MPEG4/ISO/AVC
Duration : 1h 30mn
Bit rate mode : Variable
Bit rate : 22.0 Mbps
Maximum bit rate : 30.0 Mbps
Width : 1 920 pixels
Height : 1 080 pixels
Display aspect ratio : 16:9
Frame rate : 24.000 fps
Standard : NTSC
Color space : YUV
Chroma subsampling : 4:2:0
Bit depth : 8 bits
Scan type : Progressive
Bits/(Pixel*Frame) : 0.442
Stream size : 14.2 GiB (81%)
Writing library : x264pro - Adobe CS Exporter Plug-in
Encoding settings : cabac=1 / ref=4 / deblock=1:-1:-1 / analyse=0x3:0x133 / me=umh / subme=10 / psy=1 / psy_rd=1.00:0.15 / mixed_ref=1 / me_range=24 / chroma_me=1 / trellis=2 / 8x8dct=1 / cqm=0 / deadzone=21,11 / fast_pskip=1 / chroma_qp_offset=-3 / threads=12 / lookahead_threads=2 / sliced_threads=0 / slices=4 / nr=0 / decimate=1 / interlaced=0 / bluray_compat=1 / constrained_intra=0 / bframes=3 / b_pyramid=1 / b_adapt=2 / b_bias=0 / direct=3 / weightb=1 / open_gop=0 / weightp=1 / keyint=24 / keyint_min=1 / scenecut=40 / intra_refresh=0 / rc_lookahead=24 / rc=abr / mbtree=1 / bitrate=22000 / ratetol=1.0 / qcomp=0.60 / qpmin=0 / qpmax=69 / qpstep=4 / vbv_maxrate=30000 / vbv_bufsize=30000 / nal_hrd=vbr / ip_ratio=1.40 / aq=1:1.00
Language : English
Default : Yes
Forced : No
Color primaries : BT.709-5, BT.1361, IEC 61966-2-4, SMPTE RP177
Transfer characteristics : BT.709-5, BT.1361
Matrix coefficients : BT.709-5, BT.1361, IEC 61966-2-4 709, SMPTE RP177

Audio #1
ID : 2
Format : AC-3
Format/Info : Audio Coding 3
Mode extension : CM (complete main)
Codec ID : A_AC3
Duration : 1h 30mn
Bit rate mode : Constant
Bit rate : 384 Kbps
Channel(s) : 6 channels
Channel positions : Front: L C R, Side: L R, LFE
Sampling rate : 48.0 KHz
Bit depth : 16 bits
Compression mode : Lossy
Stream size : 248 MiB (1%)
Title : Многоголосый Екатеринбург Арт
Language : Russian
Default : Yes
Forced : No

Audio #2
ID : 3
Format : AC-3
Format/Info : Audio Coding 3
Mode extension : CM (complete main)
Codec ID : A_AC3
Duration : 1h 30mn
Bit rate mode : Constant
Bit rate : 640 Kbps
Channel(s) : 6 channels
Channel positions : Front: L C R, Side: L R, LFE
Sampling rate : 48.0 KHz
Bit depth : 16 bits
Compression mode : Lossy
Stream size : 413 MiB (2%)
Title : Гаврилов
Language : Russian
Default : No
Forced : No

Audio #3
ID : 4
Format : AC-3
Format/Info : Audio Coding 3
Mode extension : CM (complete main)
Codec ID : A_AC3
Duration : 1h 30mn
Bit rate mode : Constant
Bit rate : 640 Kbps
Channel(s) : 6 channels
Channel positions : Front: L C R, Side: L R, LFE
Sampling rate : 48.0 KHz
Bit depth : 16 bits
Compression mode : Lossy
Stream size : 413 MiB (2%)
Title : Живов
Language : Russian
Default : No
Forced : No

Audio #4
ID : 5
Format : DTS
Format/Info : Digital Theater Systems
Format profile : MA / Core
Codec ID : A_DTS
Duration : 1h 30mn
Bit rate mode : Variable
Bit rate : 1 561 Kbps / 1 510 Kbps
Channel(s) : 6 channels
Channel positions : Front: L C R, Side: L R, LFE
Sampling rate : 48.0 KHz
Bit depth : 16 bits
Compression mode : Lossless / Lossy
Title : Яроцкий
Language : Russian
Default : No
Forced : No

Audio #5
ID : 6
Format : DTS
Format/Info : Digital Theater Systems
Format profile : MA / Core
Codec ID : A_DTS
Duration : 1h 30mn
Bit rate mode : Variable
Bit rate : 1 576 Kbps / 1 510 Kbps
Channel(s) : 6 channels
Channel positions : Front: L C R, Side: L R, LFE
Sampling rate : 48.0 KHz
Bit depth : 16 bits
Compression mode : Lossless / Lossy
Language : English
Default : No
Forced : No

Text #1
ID : 7
Format : UTF-8
Codec ID : S_TEXT/UTF8
Codec ID/Info : UTF-8 Plain Text
Language : Russian
Default : No
Forced : No

Text #2
ID : 8
Format : UTF-8
Codec ID : S_TEXT/UTF8
Codec ID/Info : UTF-8 Plain Text
Language : English
Default : No
Forced : No

Menu
00:00:00.000 : en:00:00:00.000
00:03:58.375 : en:00:03:58.375
00:10:57.917 : en:00:10:57.917
00:18:29.000 : en:00:18:29.000
00:25:27.833 : en:00:25:27.833
00:32:36.917 : en:00:32:36.917
00:40:38.875 : en:00:40:38.875
00:51:20.167 : en:00:51:20.167
00:56:20.167 : en:00:56:20.167
01:03:16.750 : en:01:03:16.750
01:09:36.083 : en:01:09:36.083
01:22:57.125 : en:01:22:57.125
01:24:24.792 : en:01:24:24.792
pb.wtf



Скачать Взрыватель через торрент https://b.radikal.ru/b33/1807/e2/016f590ea7e1.png Скачать фильм Взрыватель через торрент бесплантно в хорошем качестве Описание: 1997 год. - центр подделок. Русские террористы из спецслужб задумали операцию по глобальному шантажу США. Войдя в сговор ... 9.5 10 4
Info! Золотая раздача, скачанное не засчитывается.
Торрент: Зарегистрирован [2018-07-01 12:42] · скачан: 12 раз
Статус: √ проверено
Размер: 17.57 GB
Как cкачать? Как скачать Взрыватель через торрент | qTorrent

% Раздел Тема Автор DL S | L
Фильмы [HD 720p, 1080p] (Хороший звук DUB, MVO) [ 9.81 GB ] Взрыватель / Knock Off [1998 BDRip 1080p] MVO+3xAVO bober100 Скачать
1 | 0

28-11-2019 20:33  

Отключить всю рекламу на сайте

    Дорогой пользователь! Огромная просьба, поблагодарите релизера, оцените раздачу и оставьте свои комментарий, если Вы скачали Взрыватель через торрент бесплатно! Внесите свою лепту в развитие PiratBit!
    Комментировать посты могут только пользователи прошедшие не сложную регистрацию
    Показать сообщения:    

    Взрыватель через торрент
    Скачать бесплатно Взрыватель
    Взрыватель скачать торрент
    Взрыватель смотреть онлайн
    Cкачать фильм Взрыватель бесплатно
    Взрыватель скачать торрент в хорошем качестве
    Взрыватель смотреть онлайн бесплатно в хорошем качестве


    Вы не можете начинать темы
    Вы не можете отвечать на сообщения
    Вы не можете редактировать свои сообщения
    Вы не можете удалять свои сообщения
    Вы не можете голосовать в опросах
    Вы не можете прикреплять файлы к сообщениям
    Вы можете скачивать файлы