Доктор Стрэндж

Лицензия

Добыча

MVO

Дом дракона

1 сезон

Тор

Лицензия

Мэверик

Лицензия

Там, где раки поют

MVO

Властелин колец

1 сезон

Ultimate

pack

Рекомендуем

30

Repack

ВАЖНО

ВАЖНО

Ghostwire

RePack

jed

RePack

nioh2

RePack

RDR2

RePack

NEED FOR SPEED™ PAYBACK

RePack

скачать торрент

Кинопоиск HD

Острые козырьки 6 сезон

6 сезон

FAR CRY 6

RePack

скачать торрент

Лицензия

скачать торрент

MVO

1

1 сезон

скачать торрент

1 сезон

скачать торрент

Лицензия

  

Право на измену / Разрешение / Permission (Брайан Крано) [2017, драма, мелодрама, комедия, WEB-DL 720p] DUB [Line]

Право на измену через торрент pb.wtf

Размер: 3.34 GB | Добавлен: 4 года 3 мес. назад | Торрент скачан:34 раза
Смотреть онлайн Право на измену | Скачать   

01-07-2018 17:04 Право на измену Скачать торрент  

Право на измену / Разрешение / PermissionГод выпуска: 2017
Страна: США
Жанр: драма, мелодрама, комедия
Продолжительность: 01:40:17
Перевод: Дублированный | Line
Субтитры: отсутствуют

Режиссер: Брайан Крано

rating

В ролях:

Ребекка Холл, Дэн Стивенс, Джейсон Судейкис, Джина Гершон, Франсуа Арно, Рауль Кастильо, Дэвид Джозеф Крэйг, Axel B. Crano, Бриджет Эверетт, Мишель Хёрст

Описание:

Фильм рассказывает о паре, которая решила попробовать отношения с другими людьми, перед тем как официально решиться провести остаток своих дней вместе.

Качество: WEB-DL 720p
Формат: MKV

Видео: h.264, 4 377 kb/s, 1280x718
Аудио#1: Русский, (AC3, 2 ch, 384 Кбит/с)
скриншот  скриншот  скриншот  

Общее
Уникальный идентификатор : 199204468167248204389403666291452553715 (0x95DD629151DC78CF91C08499884829F3)
Полное имя : D:\Permission.2O17.D.WEB-DL.72Op_KOSHARA.mkv
Формат : Matroska
Версия формата : Version 2
Размер файла : 3,34 Гбайт
Продолжительность : 1 ч. 40 м.
Режим общего битрейта : Переменный
Общий поток : 4763 Кбит/сек
Дата кодирования : UTC 2018-06-30 13:48:35
Программа кодирования : mkvmerge v8.3.0 ('Over the Horizon') 64bit
Библиотека кодирования : libebml v1.3.1 + libmatroska v1.4.2

Видео
Идентификатор : 1
Формат : AVC
Формат/Информация : Advanced Video Codec
Профиль формата : [email protected]
Параметр CABAC формата : Да
Параметр RefFrames формата : 4 кадра
Идентификатор кодека : V_MPEG4/ISO/AVC
Продолжительность : 1 ч. 40 м.
Вид битрейта : Переменный
Битрейт : 4377 Кбит/сек
Максимальный битрейт : 5000 Кбит/сек
Ширина : 1280 пикселей
Высота : 718 пикселей
Соотношение сторон : 16:9
Режим частоты кадров : Постоянный
Частота кадров : 23,976 (24000/1001) кадра/сек
Стандарт вещания : Component
Цветовое пространство : YUV
Субдискретизация насыщенности : 4:2:0
Битовая глубина : 8 бит
Тип развёртки : Прогрессивная
Бит/(Пиксели*Кадры) : 0.194
Размер потока : 3,00 Гбайт (90%)
Default : Да
Forced : Нет
Цветовой диапазон : Limited
Основные цвета : BT.709
Характеристики трансфера : BT.709
Коэффициенты матрицы : BT.709

Аудио
Идентификатор : 2
Формат : AC-3
Формат/Информация : Audio Coding 3
Расширение режима : CM (complete main)
Параметр Endianness формата : Big
Идентификатор кодека : A_AC3
Продолжительность : 1 ч. 40 м.
Вид битрейта : Постоянный
Битрейт : 384 Кбит/сек
Каналы : 2 канала
Расположение каналов : Front: L R
Частота : 48,0 КГц
Частота кадров : 31,250 кадров/сек (1536 spf)
Метод сжатия : С потерями
Размер потока : 275 Мбайт (8%)
Default : Да
Forced : Нет




Скачать Право на измену через торрент http://img11.lostpic.net/2018/07/01/f525376e08e58a599988bdd205afea54.jpg Скачать, смотреть онлайн Право на измену бесплантно в хорошем качестве Описание: Фильм рассказывает о паре, которая решила попробовать отношения с другими людьми, перед тем как официально решиться провести ... 7 10 3
Торрент: Зарегистрирован [2018-07-01 17:04] · скачан: 34 раз
Статус: T временная
Размер: 3.34 GB
Как cкачать? Как скачать Право на измену через торрент | UTorrent

% Раздел Тема Автор DL S | L
T Фильмы (мультфильмы) cо спонсором показа (Новинки AVI/MKV) [ 3.65 GB ] Право на измену / Разрешение / Permission | DUB | 1080p bober100 Скачать
1 | 0
T Фильмы (мультфильмы) cо спонсором показа (Новинки AVI/MKV) [ 1.37 GB ] Право на измену / Разрешение / Permission | DUB | DLRip bober100 Скачать
1 | 0

28-11-2019 20:33  

Отключить вcю реклaмy на сайте

    Дорогой пользователь! Огромная просьба, поблагодарите релизера, оцените раздачу и оставьте свои комментарий, если Вы скачали Право на измену через торрент бесплатно!!
    Комментировать посты могут только пользователи прошедшие не сложную регистрацию
    Показать сообщения:    


    Право на измену через торрент
    Скачать бесплатно Право на измену
    Право на измену скачать торрент
    Право на измену смотреть онлайн
    Cкачать фильм Право на измену бесплатно
    Право на измену скачать торрент в хорошем качестве
    Право на измену смотреть онлайн бесплатно в хорошем качестве
    Вы не можете начинать темы
    Вы не можете отвечать на сообщения
    Вы не можете редактировать свои сообщения
    Вы не можете удалять свои сообщения
    Вы не можете голосовать в опросах
    Вы не можете прикреплять файлы к сообщениям
    Вы можете скачивать файлы