2 сезон

iTunes

MVO

1

2 сезон

iTunes

iTunes

1 сезон

RePack

30

Новинка

ВАЖНО

ИГРА 18+

pack

RePack

MK11
pack

Легкие деньги

RePack

jed

RePack

fifa19

RePack

RDR2

RePack

NEED FOR SPEED™ PAYBACK

4 сезон

9 сезон

Бесстыжие 9 сезон

Все сериалы

все сериалы на PB.wtf

RePack

FAR CRY 5

Anonymous, добрый вечер, мы не успеваем собрать деньги на оплату серверов за декабрь и январь, помогите нам пожалуйста в это трудное время. В качестве благодарности мы отключим Вам всю рекламу на сайте (укажите свой ник в строку Ваше имя)!

×
  
Magnet ссылка

Убить Гюнтера / Killing Gunther (Таран Киллэм) [2017, Боевик, комедия, BDRip-HEVC 1080p, (10Bit)] MVO [Лицензия / iTunes] pb.wtf

Убить Гюнтера через торрент pb.wtf

Размер: 5.61 GB | Добавлен: 2 года 6 мес. назад | Торрент скачан:105 раз
Скачать  

01-07-2018 18:09 Убить Гюнтера Скачать торрент  

Убить Гюнтера / Killing GuntherГод выпуска: 2017
Страна: США
Жанр: Боевик, комедия
Продолжительность: 01:56:29
Перевод: Профессиональный многоголосый | Лицензия / iTunes
Субтитры: отсутствуют

Режиссер: Таран Киллэм

rating

В ролях:


Таран Киллэм, Ханна Саймон (Sanaa), Бобби Мойнахан (Donnie), Пол Бриттейн (Gabe), Арнольд Шварценеггер, Питер Келамис (Rahmat), Аарон Ю (Yong), Коби Смолдерс (Lisa McCalla), Эллисон Толман (Mia), Стив Бачич (Max), Скотт МакНил (Cheyenne), Амир Талай (Izzat)
Описание:

В мире профессиональных убийц существует свой рейтинг, и на его вершине находится некто Гюнтер. Никто не знает, как он выглядит, и где его найти, но совершенно точно известно, что с ним лучше не связываться. Киллер Блейк решает поправить иерархию и любой ценой уничтожить легендарного Гюнтера, для чего собирает команду наёмников со всего света — хакера, взрывника, дочь террориста, безбашенных близнецов из России, китайского специалиста по ядам и даже убийцу с бионической рукой.



Качество: BDRip-HEVC 1080p | 10Bit
Формат: MKV

Видео: x265, 10Bit, 1920х1036 (16:9), 23,976 fps, ~7 755 kb/s, 0.163 bit/pixe
Аудио#1: Русский (AC3, 6 ch, 384 Кбит/с) / Профессиональный многоголосый (iTunes)
Аудио#2: Английский (AC3, 6 ch, 448 Кбит/с)
скриншот   скриншот   скриншот  

General
Unique ID : 173783867748958175840555559604235004843 (0x82BD8E339AA19316BA864B37CB7BEBAB)
Complete name : N:Убить Гюнтера (2017) BDRip 1080p [HEVC] 10Bit_Druidblack.mkv
Format : Matroska
Format version : Version 4 / Version 2
File size : 5.61 GiB
Duration : 1 h 33 min
Overall bit rate : 8 589 kb/s
Encoded date : UTC 2018-07-01 16:18:54
Writing application : mkvmerge v24.0.0 ('Beyond The Pale') 64-bit
Writing library : libebml v1.3.6 + libmatroska v1.4.9
Cover : Yes
Attachments : cover.jpg
Encoding Gui : Hybrid 2018.06.04.1

Video
ID : 1
Format : HEVC
Format/Info : High Efficiency Video Coding
Format profile : Main 10@L5.1@High
Codec ID : V_MPEGH/ISO/HEVC
Duration : 1 h 33 min
Bit rate : 7 755 kb/s
Width : 1 920 pixels
Height : 1 036 pixels
Display aspect ratio : 1.85:1
Frame rate mode : Constant
Frame rate : 23.976 (24000/1001) FPS
Color space : YUV
Chroma subsampling : 4:2:0 (Type 0)
Bit depth : 10 bits
Bits/(Pixel*Frame) : 0.163
Stream size : 5.06 GiB (90%)
Writing library : x265 2.8+12-9cde2c278464:[Windows][GCC 7.3.0][64 bit] 10bit
Encoding settings : cpuid=1049583 / frame-threads=4 / wpp / no-pmode / no-pme / no-psnr / no-ssim / log-level=2 / input-csp=1 / input-res=1920x1036 / interlace=0 / total-frames=0 / level-idc=51 / high-tier=1 / uhd-bd=0 / ref=5 / no-allow-non-conformance / no-repeat-headers / annexb / no-aud / no-hrd / info / hash=0 / no-temporal-layers / open-gop / min-keyint=23 / keyint=240 / gop-lookahead=0 / bframes=8 / b-adapt=2 / b-pyramid / bframe-bias=0 / rc-lookahead=40 / lookahead-slices=6 / scenecut=40 / radl=0 / no-intra-refresh / ctu=64 / min-cu-size=8 / rect / no-amp / max-tu-size=32 / tu-inter-depth=3 / tu-intra-depth=3 / limit-tu=4 / rdoq-level=2 / dynamic-rd=0.00 / no-ssim-rd / signhide / no-tskip / nr-intra=0 / nr-inter=0 / no-constrained-intra / no-strong-intra-smoothing / max-merge=3 / limit-refs=3 / limit-modes / me=3 / subme=7 / merange=57 / temporal-mvp / weightp / weightb / no-analyze-src-pics / deblock=-3:-3 / no-sao / no-sao-non-deblock / rd=4 / no-early-skip / rskip / no-fast-intra / no-tskip-fast / no-cu-lossless / no-b-intra / no-splitrd-skip / rdpenalty=0 / psy-rd=2.00 / psy-rdoq=1.00 / no-rd-refine / no-lossless / cbqpoffs=0 / crqpoffs=0 / rc=crf / crf=18.0 / qcomp=0.60 / qpstep=4 / stats-write=0 / stats-read=0 / vbv-maxrate=160000 / vbv-bufsize=160000 / vbv-init=0.9 / crf-max=0.0 / crf-min=0.0 / ipratio=1.40 / pbratio=1.30 / aq-mode=1 / aq-strength=1.00 / cutree / zone-count=1 / zones: / start-frame=126845 / end-frame=134449 / qp=35 / no-strict-cbr / qg-size=32 / no-rc-grain / qpmax=69 / qpmin=0 / no-const-vbv / sar=0 / overscan=0 / videoformat=5 / range=0 / colorprim=2 / transfer=2 / colormatrix=1 / chromaloc=1 / chromaloc-top=0 / chromaloc-bottom=0 / display-window=0 / max-cll=0,0 / min-luma=0 / max-luma=1023 / log2-max-poc-lsb=8 / vui-timing-info / vui-hrd-info / slices=1 / no-opt-qp-pps / no-opt-ref-list-length-pps / no-multi-pass-opt-rps / scenecut-bias=0.05 / no-opt-cu-delta-qp / no-aq-motion / no-hdr / no-hdr-opt / no-dhdr10-opt / no-idr-recovery-sei / analysis-reuse-level=5 / scale-factor=0 / refine-intra=0 / refine-inter=0 / refine-mv=0 / no-limit-sao / ctu-info=0 / no-lowpass-dct / refine-mv-type=0 / copy-pic=1 / max-ausize-factor=1.0 / no-dynamic-refine / no-single-sei
Language : English
Default : Yes
Forced : Yes
Color range : Limited
Matrix coefficients : BT.709

Audio #1
ID : 2
Format : AC-3
Format/Info : Audio Coding 3
Codec ID : A_AC3
Duration : 1 h 33 min
Bit rate mode : Constant
Bit rate : 384 kb/s
Channel(s) : 6 channels
Channel positions : Front: L C R, Side: L R, LFE
Sampling rate : 48.0 kHz
Frame rate : 31.250 FPS (1536 SPF)
Bit depth : 16 bits
Compression mode : Lossy
Stream size : 257 MiB (4%)
Title : Профессиональный многоголосый _ iTunes
Language : Russian
Service kind : Complete Main
Default : Yes
Forced : No

Audio #2
ID : 3
Format : AC-3
Format/Info : Audio Coding 3
Codec ID : A_AC3
Duration : 1 h 33 min
Bit rate mode : Constant
Bit rate : 448 kb/s
Channel(s) : 6 channels
Channel positions : Front: L C R, Side: L R, LFE
Sampling rate : 48.0 kHz
Frame rate : 31.250 FPS (1536 SPF)
Bit depth : 16 bits
Compression mode : Lossy
Stream size : 299 MiB (5%)
Title : Original
Language : English
Service kind : Complete Main
Default : No
Forced : No

pb.wtf



Скачать Убить Гюнтера через торрент http://i104.fastpic.ru/big/2018/0701/5b/022a66102ea4ef0c57a6d1b23ad4605b.jpg Скачать фильм Убить Гюнтера через торрент бесплантно в хорошем качестве Описание: В мире профессиональных убийц существует свой рейтинг, и на его вершине находится некто Гюнтер. Никто не знает, как он выглядит, ... 7 10 6
Торрент: Зарегистрирован [2018-07-01 18:09] · скачан: 105 раз
Статус: √ проверено
Размер: 5.61 GB
Как cкачать? Как скачать Убить Гюнтера через торрент | UTorrent

% Раздел Тема Автор DL S | L
Фильмы 2017 [DVDrip, WEB-DLRip, HDrip] (DUB, MVO) [ 1.46 GB ] Убить Гюнтера / Killing Gunther [2017 BDRip] [MVO] killermax2013 Скачать
1 | 0
T Релизы по Парсеру [Игры, Сериалы и Фильмы и другое...] [ 4.75 GB ] Убить Гюнтера / Killing Gunther [2017 BDRip 720p] MVO schultz Скачать
1 | 0
Фильмы (Blu-ray, BD-Remux, HDDVD) [ 16.89 GB ] Убить Гюнтера / Killing Gunther [2017 BD Remux 1080р] 2xMVO [MUZOBOZ] bober100 Скачать
1 | 0
Фильмы 2017 [DVDrip, WEB-DLRip, HDrip] (DUB, MVO) [ 2.22 GB ] Убить Гюнтера / Killing Gunther [2017 BDRip-AVC] MVO bober100 Скачать
2 | 0
Фильмы 2017 [DVDrip, WEB-DLRip, HDrip] (DUB, MVO) [ 1.42 GB ] Убить Гюнтера / Killing Gunther [2017 BDRip] MVO Twi7ter Скачать
2 | 0
Фильмы [HD 720p, 1080p] (Хороший звук DUB, MVO) [ 9.07 GB ] Убить Гюнтера / Killing Gunther [2017 BDRip 1080p] MVO bober100 Скачать
2 | 0
Фильмы [HD 720p, 1080p] (Хороший звук DUB, MVO) [ 5.17 GB ] Убить Гюнтера / Killing Gunther [2017 BDRip 720p] MVO bober100 Скачать
1 | 0


Последний раз редактировалось: bober100 (2018-07-02 16:10), всего редактировалось 1 раз

28-11-2019 20:33  

Отключить всю рекламу на сайте

    Дорогой пользователь! Огромная просьба, поблагодарите релизера, оцените раздачу и оставьте свои комментарий, если Вы скачали Убить Гюнтера через торрент бесплатно! Внесите свою лепту в развитие PiratBit!
    Комментировать посты могут только пользователи прошедшие не сложную регистрацию
    Показать сообщения:    

    Убить Гюнтера через торрент
    Скачать бесплатно Убить Гюнтера
    Убить Гюнтера скачать торрент
    Убить Гюнтера смотреть онлайн
    Cкачать фильм Убить Гюнтера бесплатно
    Убить Гюнтера скачать торрент в хорошем качестве
    Убить Гюнтера смотреть онлайн бесплатно в хорошем качестве


    Вы не можете начинать темы
    Вы не можете отвечать на сообщения
    Вы не можете редактировать свои сообщения
    Вы не можете удалять свои сообщения
    Вы не можете голосовать в опросах
    Вы не можете прикреплять файлы к сообщениям
    Вы можете скачивать файлы