1 сезон

3 сезон

iTunes

1

iTunes

MVO

iTunes

13

1 сезон

RePack

30

Deluxe

pack

Лицензия

ВАЖНО

ИГРА 18+

pack

RePack

MK11

RePack

jed

RePack

fifa19

RePack

RDR2

RePack

NEED FOR SPEED™ PAYBACK

4 сезон

9 сезон

Бесстыжие 9 сезон

Все сериалы

все сериалы на PB.wtf

RePack

FAR CRY 5

Anonymous, доброй ночи, мы катастрофически не успеваем собрать деньги на оплату серверов, помогите нам пожалуйста 5,10,15р., для нас важна любая помощь . В качестве благодарности мы отключим Вам всю рекламу на сайте (укажите свой ник в строку Ваше имя)!

×
  
Magnet ссылка

Секса не будет!!! / Blockers (Кэй Кэннон) [2018, комедия, BDRip от R.G. Resident] MVO [HDRezka Studio] pb.wtf

Секса не будет!!! через торрент pb.wtf

Размер: 1.37 GB | Добавлен: 3 года назад | Торрент скачан:631 раз
Скачать  

02-07-2018 09:55 Секса не будет!!! Скачать торрент  

Секса не будет!!! / Blockers
««Родители умеют обламывать, как никто другой»»

Год выпуска: 2018
Страна: США
Жанр: комедия

Продолжительность: 01:41:56
Перевод: Профессиональный многоголосый [HDRezka Studio]
Режиссер: Кэй Кэннон
В ролях:

Лесли Манн (Lisa), Айк Баринхолц (Hunter), Джон Сина (Mitchell), Кэтрин Ньютон (Julie), Джеральдин Висванатхан (Kayla), Гидеон Адлон (Sam), Рамона Янг (Angelica), Грэм Филлипс (Austin), Майлз Гатри Роббинс (Connor), Джимми Беллинджер (Chad), Колтон Данн (Rudy), Сарайю Рао (Marcie)
Описание:
У трех подруг грандиозные планы на выпускной. Случайно об этом узнав, их родители решают во что бы то ни стало предотвратить непоправимое.
Рейтинг:

MPAA: R - Лицам до 17 лет обязательно присутствие взрослого
Качество: BDRip
Формат: AVI
Видео: XviD, 720x304 (2.35:1), 1721 kbps, 23,976 fps, 0,328 bpp
Аудио: AC3 / 2.0 / 48 kHz / 192 kbps /

General
Complete name : F:\Blockers.2018.MVO.BDRip.R.G.Resident.avi
Format : AVI
Format/Info : Audio Video Interleave
File size : 1.37 GiB
Duration : 1 h 41 min
Overall bit rate : 1 923 kb/s
Writing application : VirtualDubModRus 1.5.10.2 (build 2542/release)
Writing library : VirtualDubMod build 2542/release

Video
ID : 0
Format : MPEG-4 Visual
Format profile : Advanced Simple@L5
Format settings, BVOP : 1
Format settings, QPel : No
Format settings, GMC : No warppoints
Format settings, Matrix : Custom
Codec ID : XVID
Codec ID/Hint : XviD
Duration : 1 h 41 min
Bit rate : 1 722 kb/s
Width : 720 pixels
Height : 304 pixels
Display aspect ratio : 2.35:1
Frame rate : 23.976 (24000/1001) FPS
Color space : YUV
Chroma subsampling : 4:2:0
Bit depth : 8 bits
Scan type : Progressive
Compression mode : Lossy
Bits/(Pixel*Frame) : 0.328
Stream size : 1.23 GiB (90%)
Writing library : XviD 73

Audio
ID : 1
Format : AC-3
Format/Info : Audio Coding 3
Mode extension : CM (complete main)
Format settings, Endianness : Big
Codec ID : 2000
Duration : 1 h 41 min
Bit rate mode : Constant
Bit rate : 192 kb/s
Channel(s) : 2 channels
Channel positions : Front: L R
Sampling rate : 48.0 kHz
Frame rate : 31.250 FPS (1536 spf)
Compression mode : Lossy
Stream size : 140 MiB (10%)
Alignment : Split accross interleaves
Interleave, duration : 42 ms (1.00 video frame)
Interleave, preload duration : 500 ms
pb.wtf



Скачать Секса не будет!!! через торрент http://i77.fastpic.ru/big/2016/0417/a7/808a646271c761f7c7d87df3d366b3a7.png Скачать фильм Секса не будет!!! через торрент бесплантно в хорошем качестве Описание: У трех подруг грандиозные планы на выпускной. Случайно об этом узнав, их родители решают во что бы то ни стало предотвратить ... 10 10 12
Info! Золотая раздача, скачанное не засчитывается.
Торрент: Зарегистрирован [2018-07-02 09:55] · скачан: 631 раз
Статус: T временная
Размер: 1.37 GB
Как cкачать? Как скачать Секса не будет!!! через торрент | UTorrent

% Раздел Тема Автор DL S | L
Фильмы 2018 [DVDrip, WEB-DLRip, HDrip] (DUB, MVO) [ 1.46 GB ] Секса не будет!!! / Blockers [2018 BDRip] - [] Twi7ter Скачать
1 | 0
Фильмы [HD 720p, 1080p] (Хороший звук DUB, MVO) [ 10.17 GB ] Секса не будет!!! / Blockers [2018 BDRip 1080p] DUB [] bober100 Скачать
1 | 0
Фильмы 2018 [DVDrip, WEB-DLRip, HDrip] (DUB, MVO) [ 747 MB ] Секса не будет!!! / Blockers [2018 HDRip] DUB [] bober100 Скачать
1 | 0
Фильмы 2018 [DVDrip, WEB-DLRip, HDrip] (DUB, MVO) [ 1.77 GB ] Секса не будет!!! / Blockers [2018 BDRip-AVC] MVO [HDRezka Studio] +DUB [] bober100 Скачать
1 | 0
Фильмы (Blu-ray, BD-Remux, HDDVD) [ 37.55 GB ] Секса не будет!!! / Blockers [2018 Blu-ray EUR 1080p] DUB [] bober100 Скачать
1 | 0
Фильмы [HD 720p, 1080p] (Хороший звук DUB, MVO) [ 5.54 GB ] Секса не будет!!! / Blockers [2018 BDRip 720p] DUB [] bober100 Скачать
1 | 0
Фильмы 2018 [DVDrip, WEB-DLRip, HDrip] (DUB, MVO) [ 1.46 GB ] Секса не будет!!! / Blockers [2018 BDRip] DUB [ BD EUR] bober100 Скачать
1 | 0

28-11-2019 20:33  

Отключить всю рекламу на сайте

02-07-2018 16:24 Секса не будет!!! Скачать торрент  

даже не комедияpb.wtf



02-07-2018 17:06 Секса не будет!!! Скачать торрент  

napalm-666 писал(а):

даже не комедия

а что ?pb.wtf



03-07-2018 10:20 Секса не будет!!! Скачать торрент  

napalm-666 писал(а):

даже не комедия

Комедия 5из10pb.wtf



03-07-2018 15:58 Секса не будет!!! Скачать торрент  

Я не искал в этом фильме глубокого смысла, ожидал увидеть американский сортирный юмор. Но тут какой-то новый жанр кинематографа - тебе определенно не грустно но и шуток как таковых нету. Хз, последние 30 минут на перемотке смотрел.pb.wtf



    Дорогой пользователь! Огромная просьба, поблагодарите релизера, оцените раздачу и оставьте свои комментарий, если Вы скачали Секса не будет!!! через торрент бесплатно! Внесите свою лепту в развитие PiratBit!
    Комментировать посты могут только пользователи прошедшие не сложную регистрацию
    Показать сообщения:    

    Секса не будет!!! через торрент
    Скачать бесплатно Секса не будет!!!
    Секса не будет!!! скачать торрент
    Секса не будет!!! смотреть онлайн
    Cкачать фильм Секса не будет!!! бесплатно
    Секса не будет!!! скачать торрент в хорошем качестве
    Секса не будет!!! смотреть онлайн бесплатно в хорошем качестве


    Вы не можете начинать темы
    Вы не можете отвечать на сообщения
    Вы не можете редактировать свои сообщения
    Вы не можете удалять свои сообщения
    Вы не можете голосовать в опросах
    Вы не можете прикреплять файлы к сообщениям
    Вы можете скачивать файлы