Ссылка на приватное зеркало всего за 1$. Внимание количество ограничено!!!

OK

1+1

iTunes

мы

OK

1

WEB-DLRip

Джокер

Пифагор

Ведьмак / The Witcher сериал

iTunes

ПШазам

ОК

Оно 2

iTunes

30
pack

Вам бонус

ВАЖНО

!!Акция!!

Alien_RageХит недели

RePack

Resident Evil 21

ИГРА 18+

pack

RePack

jed

RePack

fifa19

RePack

Assassins Creed: Odyssey

RePack

NEED FOR SPEED™ PAYBACK

4 сезон

9 сезон

Бесстыжие 9 сезон

Все сериалы

все сериалы на PB.wtf

RePack

FAR CRY 5
  

Год впечатляющего человека / The Year of Spectacular Men (Лиа Томпсон) [2017, драма, комедия, WEB-DL 720p] MVO ["Синема УС"] pb.wtf

Год впечатляющего человека через торрент pb.wtf

Размер: 3.57 GB | Добавлен: 1 год 6 мес. назад | Торрент скачан:34 раза
Скачать  

02-07-2018 13:46 Год впечатляющего человека Скачать торрент  

Год впечатляющего человека / The Year of Spectacular Men
Год выпуска: 2017
Страна: США
Жанр: драма, комедия
Продолжительность: 01:44:47
Перевод: Любительский (многоголосый) | "Синема УС"
Субтитры: отсутствуют

Режиссер: Лиа Томпсон

rating

В ролях:

Мэдлин Дойч, Джесси Брэдфорд, Камерон Монахэн, Брэндон Т. Джексон, Зак Рериг, Николас Браун, Зои Дойч, Д.У. Моффетт, Эван Джогиа, Лили Энн Харрисон

Описание:

Фильм рассказывает об Иззи Клейн, которая едва закончила колледж и вступила во взрослую жизнь. Она рассталась с парнем, застряла в Нью-Йорке, не знает куда податься и что делать дальше. На помощь героине приходит её сестра Сабрина, которая убеждает Иззи вернуться в Лос-Анджелес и поселиться с ней в одной квартире, где она могла бы присматривать за своей непутёвой сестрой.

Качество: WEB-DL 720p
Формат: MKV

Видео: h.264, 4395 kb/s, 1280x536
Аудио#1: Русский, (AC3, 2 ch, 384 Кбит/с)
скриншот  скриншот  скриншот  

Общее
Уникальный идентификатор : 227413321948314788445122928630139679222 (0xAB1636702EF5EB74827BB05A2B8771F6)
Полное имя : D:\The.Year.Of.Spectacular.Men.2017.P.WEB-DL.72Op_KOSHARA.mkv
Формат : Matroska
Версия формата : Version 2
Размер файла : 3,57 Гбайт
Продолжительность : 1 ч. 44 м.
Режим общего битрейта : Переменный
Общий поток : 4876 Кбит/сек
Дата кодирования : UTC 2018-07-01 05:35:24
Программа кодирования : mkvmerge v8.3.0 ('Over the Horizon') 64bit
Библиотека кодирования : libebml v1.3.1 + libmatroska v1.4.2

Видео
Идентификатор : 1
Формат : AVC
Формат/Информация : Advanced Video Codec
Профиль формата : High@L4.1
Параметр CABAC формата : Да
Параметр RefFrames формата : 4 кадра
Идентификатор кодека : V_MPEG4/ISO/AVC
Продолжительность : 1 ч. 44 м.
Вид битрейта : Переменный
Битрейт : 4395 Кбит/сек
Максимальный битрейт : 5000 Кбит/сек
Ширина : 1280 пикселей
Высота : 536 пикселей
Соотношение сторон : 2,40:1
Режим частоты кадров : Постоянный
Частота кадров : 23,976 (24000/1001) кадра/сек
Стандарт вещания : Component
Цветовое пространство : YUV
Субдискретизация насыщенности : 4:2:0
Битовая глубина : 8 бит
Тип развёртки : Прогрессивная
Бит/(Пиксели*Кадры) : 0.267
Размер потока : 3,22 Гбайт (90%)
Default : Да
Forced : Нет
Цветовой диапазон : Limited
Основные цвета : BT.709
Характеристики трансфера : BT.709
Коэффициенты матрицы : BT.709

Аудио
Идентификатор : 2
Формат : AC-3
Формат/Информация : Audio Coding 3
Расширение режима : CM (complete main)
Параметр Endianness формата : Big
Идентификатор кодека : A_AC3
Продолжительность : 1 ч. 44 м.
Вид битрейта : Постоянный
Битрейт : 384 Кбит/сек
Каналы : 2 канала
Расположение каналов : Front: L R
Частота : 48,0 КГц
Частота кадров : 31,250 кадров/сек (1536 spf)
Метод сжатия : С потерями
Размер потока : 288 Мбайт (8%)
Default : Да
Forced : Нет

pb.wtf



Скачать Год впечатляющего человека через торрент http://img11.lostpic.net/2018/07/02/866dcb3c1915114e8e2fa531fad1d96b.jpg Скачать фильм Год впечатляющего человека через торрент бесплантно в хорошем качестве Описание: Фильм рассказывает об Иззи Клейн, которая едва закончила колледж и вступила во взрослую жизнь. Она рассталась с парнем, застряла ... 10 10 2
Торрент: Зарегистрирован [2018-07-02 13:46] · скачан: 34 раз
Статус: T временная
Размер: 3.57 GB
Как cкачать? Как скачать Год впечатляющего человека через торрент | qTorrent

% Раздел Тема Автор DL S | L
T Фильмы (мультфильмы) cо спонсором показа (Новинки AVI/MKV) [ 1.37 GB ] Год впечатляющего человека / The Year of Spectacular Men [2017 WEB-DLRip] MVO ["Синема УС"] bober100 Скачать
1 | 0

28-11-2019 20:33  

Отключить всю рекламу на сайте

    Дорогой пользователь! Огромная просьба, поблагодарите релизера, оцените раздачу и оставьте свои комментарий, если Вы скачали Год впечатляющего человека через торрент бесплатно! Внесите свою лепту в развитие PiratBit!
    Комментировать посты могут только пользователи прошедшие не сложную регистрацию
    Показать сообщения:    

    Год впечатляющего человека через торрент
    Скачать бесплатно Год впечатляющего человека
    Год впечатляющего человека скачать торрент
    Год впечатляющего человека смотреть онлайн
    Cкачать фильм Год впечатляющего человека бесплатно
    Год впечатляющего человека скачать торрент в хорошем качестве
    Год впечатляющего человека смотреть онлайн бесплатно в хорошем качестве


    Вы не можете начинать темы
    Вы не можете отвечать на сообщения
    Вы не можете редактировать свои сообщения
    Вы не можете удалять свои сообщения
    Вы не можете голосовать в опросах
    Вы не можете прикреплять файлы к сообщениям
    Вы можете скачивать файлы