Ссылка на приватное зеркало всего за 1$. Внимание количество ограничено!!!

OK

1+1

iTunes

мы

OK

1

WEB-DLRip

Джокер

Пифагор

Ведьмак / The Witcher сериал

iTunes

ПШазам

ОК

Оно 2

iTunes

30
pack

Вам бонус

ВАЖНО

!!Акция!!

Alien_RageХит недели

RePack

Resident Evil 21

ИГРА 18+

pack

RePack

jed

RePack

fifa19

RePack

Assassins Creed: Odyssey

RePack

NEED FOR SPEED™ PAYBACK

4 сезон

9 сезон

Бесстыжие 9 сезон

Все сериалы

все сериалы на PB.wtf

RePack

FAR CRY 5
  

Убить папочку / Killing Daddy (Кертис Кроуфорд) [2014, Триллер, криминал, детектив, WEB-DL 720p] MVO ["Синема УС"] pb.wtf

Убить папочку через торрент pb.wtf

Размер: 2.95 GB | Добавлен: 1 год 6 мес. назад | Торрент скачан:12 раз
Скачать  

02-07-2018 17:44 Убить папочку Скачать торрент  

Убить папочку / Killing DaddyГод выпуска: 2014
Страна: Канада
Жанр: Триллер, криминал, детектив
Продолжительность: 01:28:11
Перевод: Любительский (многоголосый) | "Синема УС"
Субтитры: отсутствуют

Режиссер: Кертис Кроуфорд

rating

В ролях:

Элизабет Гиллис, Синтия Стивенсон, Уильям Р. Моусес, Себастьян Пижотт, Виктория Андерсон, Том Барнетт, Сабрина Манджиарачина, Дженнили Мюррэй, Луиджи Саракино, Дин Хагопиан

Описание:

Когда Калли обнаруживает, что у ее отца был изнурительный инсульт, она рассматривает его как прекрасную возможность вернуться домой и искать правосудия для своей матери.

Качество: WEB-DL 720p
Формат: MKV

Видео: h.264, 4 404 kb/s, 1280x714
Аудио#1: Русский, (AC3, 2 ch, 384 Кбит/с)
скриншот  скриншот  скриншот  

Общее
Уникальный идентификатор : 245863794058701464394741855052406401956 (0xB8F7A4F246881FA4B00EFE6F686B2BA4)
Полное имя : D:\Killing.Daddy.2014.P.WEB-DL.72Op_KOSHARA.mkv
Формат : Matroska
Версия формата : Version 2
Размер файла : 2,95 Гбайт
Продолжительность : 1 ч. 28 м.
Режим общего битрейта : Переменный
Общий поток : 4790 Кбит/сек
Дата кодирования : UTC 2018-06-30 18:38:42
Программа кодирования : mkvmerge v8.3.0 ('Over the Horizon') 64bit
Библиотека кодирования : libebml v1.3.1 + libmatroska v1.4.2

Видео
Идентификатор : 1
Формат : AVC
Формат/Информация : Advanced Video Codec
Профиль формата : High@L4.1
Параметр CABAC формата : Да
Параметр RefFrames формата : 4 кадра
Идентификатор кодека : V_MPEG4/ISO/AVC
Продолжительность : 1 ч. 28 м.
Вид битрейта : Переменный
Битрейт : 4404 Кбит/сек
Максимальный битрейт : 5000 Кбит/сек
Ширина : 1280 пикселей
Высота : 714 пикселей
Соотношение сторон : 16:9
Режим частоты кадров : Постоянный
Частота кадров : 23,976 (24000/1001) кадра/сек
Стандарт вещания : Component
Цветовое пространство : YUV
Субдискретизация насыщенности : 4:2:0
Битовая глубина : 8 бит
Тип развёртки : Прогрессивная
Бит/(Пиксели*Кадры) : 0.197
Размер потока : 2,66 Гбайт (90%)
Default : Да
Forced : Нет
Цветовой диапазон : Limited
Основные цвета : BT.709
Характеристики трансфера : BT.709
Коэффициенты матрицы : BT.709

Аудио
Идентификатор : 2
Формат : AC-3
Формат/Информация : Audio Coding 3
Расширение режима : CM (complete main)
Параметр Endianness формата : Big
Идентификатор кодека : A_AC3
Продолжительность : 1 ч. 28 м.
Вид битрейта : Постоянный
Битрейт : 384 Кбит/сек
Каналы : 2 канала
Расположение каналов : Front: L R
Частота : 48,0 КГц
Частота кадров : 31,250 кадров/сек (1536 spf)
Метод сжатия : С потерями
Размер потока : 242 Мбайт (8%)
Default : Да
Forced : Нет

pb.wtf



Скачать Убить папочку через торрент http://img11.lostpic.net/2018/07/02/34a1d791066f07b9b5bbf79766372ce6.jpg Скачать фильм Убить папочку через торрент бесплантно в хорошем качестве Описание: Когда Калли обнаруживает, что у ее отца был изнурительный инсульт, она рассматривает его как прекрасную возможность вернуться ... 10 10 2
Торрент: Зарегистрирован [2018-07-02 17:44] · скачан: 12 раз
Статус: T временная
Размер: 2.95 GB
Как cкачать? Как скачать Убить папочку через торрент | qTorrent

% Раздел Тема Автор DL S | L
T Фильмы (мультфильмы) cо спонсором показа (Новинки AVI/MKV) [ 1.37 GB ] Убить папочку / Killing Daddy [2014 WEB-DLRip] MVO ["Синема УС"] bober100 Скачать
1 | 0

28-11-2019 20:33  

Отключить всю рекламу на сайте

    Дорогой пользователь! Огромная просьба, поблагодарите релизера, оцените раздачу и оставьте свои комментарий, если Вы скачали Убить папочку через торрент бесплатно! Внесите свою лепту в развитие PiratBit!
    Комментировать посты могут только пользователи прошедшие не сложную регистрацию
    Показать сообщения:    

    Убить папочку через торрент
    Скачать бесплатно Убить папочку
    Убить папочку скачать торрент
    Убить папочку смотреть онлайн
    Cкачать фильм Убить папочку бесплатно
    Убить папочку скачать торрент в хорошем качестве
    Убить папочку смотреть онлайн бесплатно в хорошем качестве


    Вы не можете начинать темы
    Вы не можете отвечать на сообщения
    Вы не можете редактировать свои сообщения
    Вы не можете удалять свои сообщения
    Вы не можете голосовать в опросах
    Вы не можете прикреплять файлы к сообщениям
    Вы можете скачивать файлы