Ссылка на приватное зеркало всего за 1$. Внимание количество ограничено!!!

OK

1+1

iTunes

мы

OK

1

WEB-DLRip

Джокер

Пифагор

Ведьмак / The Witcher сериал

Лицензия

ПШазам

ОК

Оно 2

iTunes

30
pack

Вам бонус

ВАЖНО

!!Акция!!

Alien_RageХит недели

RePack

Resident Evil 21

ИГРА 18+

pack

RePack

jed

!!Акция!!

Alien_Rage

RePack

fifa19

RePack

Assassins Creed: Odyssey

RePack

NEED FOR SPEED™ PAYBACK

4 сезон

9 сезон

Бесстыжие 9 сезон

Все сериалы

все сериалы на PB.wtf

RePack

FAR CRY 5
  

Проклятье / Tarnation (Дэниэл Армстронг) [2017, ужасы, BDRip 720p] MVO ["Синема УС"] pb.wtf

Проклятье через торрент pb.wtf

Размер: 2.88 GB | Добавлен: 1 год 6 мес. назад | Торрент скачан:26 раз
Скачать  

02-07-2018 18:06 Проклятье Скачать торрент  

Проклятье / TarnationГод выпуска: 2017
Страна: Австралия
Жанр: ужасы
Продолжительность: 01:22:22
Перевод: Любительский (многоголосый) | "Синема УС"
Субтитры: отсутствуют

Режиссер: Дэниэл Армстронг

rating

В ролях:

Джеси Холт, Эмма Уилсон, Блейк Уолдрон, Дейзи Мастерман, Джошуа Диас, Шон Макинтайр, Сара Ховетт, Джошуа Блэк, Джен Костелло, Дэней Суинбёрн

Описание:

Оскар уволили, ее бросил парень, и она решает отправиться с друзьями в хижину в лесу рядом с городом-призраком под названием «Проклятье». Там она хочет подумать о своей жизни, но в лесу ее находит демон Единорог, который жаждет ее крови, чтобы завершить ритуал, который поднимет Сатану из Ада

Качество: BDRip 720p
Формат: MKV

Видео: h.264, 4 450 kb/s, 1280x720
Аудио#1: Русский, (AC3, 2 ch, 384 Кбит/с)
скриншот  скриншот  скриншот  

Общее
Уникальный идентификатор : 179835385463579788656453287898197280181 (0x874B090F7B29C7438820DB1248C845B5)
Полное имя : D:\Tarnation.2017.P.BDRip.72Op_KOSHARA.mkv
Формат : Matroska
Версия формата : Version 2
Размер файла : 2,88 Гбайт
Продолжительность : 1 ч. 25 м.
Режим общего битрейта : Переменный
Общий поток : 4836 Кбит/сек
Дата кодирования : UTC 2018-06-30 17:33:02
Программа кодирования : mkvmerge v8.3.0 ('Over the Horizon') 64bit
Библиотека кодирования : libebml v1.3.1 + libmatroska v1.4.2

Видео
Идентификатор : 1
Формат : AVC
Формат/Информация : Advanced Video Codec
Профиль формата : High@L4.1
Параметр CABAC формата : Да
Параметр RefFrames формата : 4 кадра
Идентификатор кодека : V_MPEG4/ISO/AVC
Продолжительность : 1 ч. 25 м.
Вид битрейта : Переменный
Битрейт : 4450 Кбит/сек
Максимальный битрейт : 5000 Кбит/сек
Ширина : 1280 пикселей
Высота : 720 пикселей
Соотношение сторон : 16:9
Режим частоты кадров : Постоянный
Частота кадров : 23,976 (24000/1001) кадра/сек
Стандарт вещания : Component
Цветовое пространство : YUV
Субдискретизация насыщенности : 4:2:0
Битовая глубина : 8 бит
Тип развёртки : Прогрессивная
Бит/(Пиксели*Кадры) : 0.197
Размер потока : 2,60 Гбайт (90%)
Default : Да
Forced : Нет
Цветовой диапазон : Limited
Основные цвета : BT.709
Характеристики трансфера : BT.709
Коэффициенты матрицы : BT.709

Аудио
Идентификатор : 2
Формат : AC-3
Формат/Информация : Audio Coding 3
Расширение режима : CM (complete main)
Параметр Endianness формата : Big
Идентификатор кодека : A_AC3
Продолжительность : 1 ч. 25 м.
Вид битрейта : Постоянный
Битрейт : 384 Кбит/сек
Каналы : 2 канала
Расположение каналов : Front: L R
Частота : 48,0 КГц
Частота кадров : 31,250 кадров/сек (1536 spf)
Метод сжатия : С потерями
Размер потока : 234 Мбайт (8%)
Default : Да
Forced : Нет

pb.wtf



Скачать Проклятье через торрент http://img11.lostpic.net/2018/07/02/006636eb238c76ff4ca9cda76f28e647.jpg Скачать фильм Проклятье через торрент бесплантно в хорошем качестве Описание: Оскар уволили, ее бросил парень, и она решает отправиться с друзьями в хижину в лесу рядом с городом-призраком под названием ... 7 10 3
Торрент: Зарегистрирован [2018-07-02 18:06] · скачан: 26 раз
Статус: # сомнительно
Размер: 2.88 GB
Как cкачать? Как скачать Проклятье через торрент | qTorrent

% Раздел Тема Автор DL S | L
T Фильмы (мультфильмы) cо спонсором показа (Новинки AVI/MKV) [ 1.37 GB ] Проклятье / Tarnation [2017 HDRip] MVO ["Синема УС"] bober100 Скачать
1 | 0

28-11-2019 20:33  

Отключить всю рекламу на сайте

    Дорогой пользователь! Огромная просьба, поблагодарите релизера, оцените раздачу и оставьте свои комментарий, если Вы скачали Проклятье через торрент бесплатно! Внесите свою лепту в развитие PiratBit!
    Комментировать посты могут только пользователи прошедшие не сложную регистрацию
    Показать сообщения:    

    Проклятье через торрент
    Скачать бесплатно Проклятье
    Проклятье скачать торрент
    Проклятье смотреть онлайн
    Cкачать фильм Проклятье бесплатно
    Проклятье скачать торрент в хорошем качестве
    Проклятье смотреть онлайн бесплатно в хорошем качестве


    Вы не можете начинать темы
    Вы не можете отвечать на сообщения
    Вы не можете редактировать свои сообщения
    Вы не можете удалять свои сообщения
    Вы не можете голосовать в опросах
    Вы не можете прикреплять файлы к сообщениям
    Вы можете скачивать файлы