Ссылка на приватное зеркало нашего сайта всего за 1$. Внимание количество ограничено!!!

2 сезон

iTunes

1 сезон

1

iTunes

iTunes

iTunes

1 сезон

RePack

30

ИГРА 18+

pack

ВАЖНО

!!Акция!!

Alien_RageХит недели

RePack

MK11
pack

Забери бонус

RePack

jed

!!Акция!!

Alien_Rage

RePack

fifa19

RePack

Assassins Creed: Odyssey

RePack

NEED FOR SPEED™ PAYBACK

4 сезон

9 сезон

Бесстыжие 9 сезон

Все сериалы

все сериалы на PB.wtf

RePack

FAR CRY 5
  

Тайны города ЭН / Сезон: 1 / Серии: 1-8 из 8 (Николай Хомерики) [2015, Детектив, драма, WEB-DL 1080p] pb.wtf

Тайны города ЭН через торрент pb.wtf

Качают: 1 [ 0 KB/s ]
Размер: 13.92 GB | Добавлен: 2 года 3 мес. назад | Торрент скачан:39 раз
Скачать  

03-07-2018 05:26 Тайны города ЭН Скачать торрент  

Тайны города ЭН
Год выпуска: 2015
Страна: Россия
Жанр: Детектив, драма
Продолжительность: ~ 00:47:00
Перевод: Не требуется
Субтитры: отсутствуют

Режиссер: Николай Хомерики



В ролях:

Светлана Колпакова, Дмитрий Поднозов, Кирилл Гребенщиков, Наталья Рогожкина, Анна Чиповская, Ольга Демидова, Наталья Батрак, Сергей Удовик, Игорь Хрипунов, Стася Хомерики-Гранковская, Владимир Селезнёв (II), Станислав Рядинский, Александр Васильев, Анатолий Друзенко, Павел Григорьев, Борис Войцеховский, Марина Куделинская, Никита Васильев (II)

Описание:

При въезде в маленький тихий городок находят тело подростка Алика. Неподалеку в овраге – машину ехавшего из Москвы незнакомца Шацкого. Первоначальная версия ДТП отметается, когда у погибшего в легких обнаруживают воду. Если его убили, то кто? Молодой следователь Анна подозревает чужака, ее начальник Михаил Сергеевич считает, что убийца – кто-то из своих. В ходе расследования, к которому, желая себя оправдать, подключается Шацкий, выясняется, что у многих в этом городке были мотивы для убийства.

Качество: WEB-DL 1080p
Формат: MKV

Видео: MPEG-4 AVC, ~ 4800 Кбит/с, 1920x1080
Аудио: AC3, 2 ch, 192 Кбит/с
скриншот   скриншот   скриншот  

Общее
Уникальный идентификатор : 188569207231524056404750560197281445549 (0x8DDD1BB8372AE2889F7094115651F6AD)
Полное имя : D:\Tainy.goroda.EN.2015.WEB-DL.(1080p).Getty\Tainy.goroda.EN.e01.2015.WEB-DL.(1080p).Getty.mkv
Формат : Matroska
Версия формата : Version 4 / Version 2
Размер файла : 1,72 Гбайт
Продолжительность : 51 м. 15 с.
Режим общего битрейта : Переменный
Общий поток : 4809 Кбит/сек
Название фильма : Tainy.goroda.EN.e01.2015.WEB-DL.(1080p).Getty
Дата кодирования : UTC 2018-07-01 16:59:10
Программа кодирования : mkvmerge v7.8.0 ('River Man') 32bit built on Mar 27 2015 16:18:02
Библиотека кодирования : libebml v1.3.1 + libmatroska v1.4.2

Видео
Идентификатор : 1
Формат : AVC
Формат/Информация : Advanced Video Codec
Профиль формата : High@L4.1
Параметр CABAC формата : Да
Параметр RefFrames формата : 4 кадра
Параметр GOP формата : M=2, N=15
Идентификатор кодека : V_MPEG4/ISO/AVC
Продолжительность : 51 м. 15 с.
Вид битрейта : Переменный
Битрейт : 4615 Кбит/сек
Максимальный битрейт : 4878 Кбит/сек
Ширина : 1920 пикселей
Высота : 1080 пикселей
Соотношение сторон : 16:9
Режим частоты кадров : Постоянный
Частота кадров : 25,000 кадров/сек
Цветовое пространство : YUV
Субдискретизация насыщенности : 4:2:0
Битовая глубина : 8 бит
Тип развёртки : Прогрессивная
Бит/(Пиксели*Кадры) : 0.089
Размер потока : 1,65 Гбайт (96%)
Default : Да
Forced : Нет

Аудио
Идентификатор : 2
Формат : AC-3
Формат/Информация : Audio Coding 3
Расширение режима : CM (complete main)
Параметр Endianness формата : Big
Идентификатор кодека : A_AC3
Продолжительность : 51 м. 15 с.
Вид битрейта : Постоянный
Битрейт : 192 Кбит/сек
Каналы : 2 канала
Расположение каналов : Front: L R
Частота : 48,0 КГц
Частота кадров : 31,250 кадров/сек (1536 spf)
Метод сжатия : С потерями
Размер потока : 70,4 Мбайт (4%)
Default : Да
Forced : Нет

pb.wtf



Скачать Тайны города ЭН через торрент https://i104.fastpic.ru/big/2018/0624/13/93c93708e4883e40669f7b0e2fbb9313.png Скачать фильм Тайны города ЭН через торрент бесплантно в хорошем качестве Описание: При въезде в маленький тихий городок находят тело подростка Алика. Неподалеку в овраге – машину ехавшего из Москвы незнакомца ... 10 10 5
Торрент: Зарегистрирован [2018-07-03 05:26] · скачан: 39 раз
Статус: √ проверено
Размер: 13.92 GB
Как cкачать? Как скачать Тайны города ЭН через торрент | qTorrent

% Раздел Тема Автор DL S | L
Наши сериалы [ 9.45 GB ] Тайны города ЭН / Сезон: 1 / Серии: 1-8 из 8 [2015 WEB-DL 720p] bober100 Скачать
1 | 0
Наши сериалы [ 5.51 GB ] Тайны города ЭН / Сезон: 1 / Серии: 1-8 из 8 [2015 WEB-DLRip] bober100 Скачать
1 | 0

28-11-2019 20:33  

Отключить всю рекламу на сайте

    Дорогой пользователь! Огромная просьба, поблагодарите релизера, оцените раздачу и оставьте свои комментарий, если Вы скачали Тайны города ЭН через торрент бесплатно! Внесите свою лепту в развитие PiratBit!
    Комментировать посты могут только пользователи прошедшие не сложную регистрацию
    Показать сообщения:    

    Тайны города ЭН через торрент
    Скачать бесплатно Тайны города ЭН
    Тайны города ЭН скачать торрент
    Тайны города ЭН смотреть онлайн
    Cкачать фильм Тайны города ЭН бесплатно
    Тайны города ЭН скачать торрент в хорошем качестве
    Тайны города ЭН смотреть онлайн бесплатно в хорошем качестве


    Вы не можете начинать темы
    Вы не можете отвечать на сообщения
    Вы не можете редактировать свои сообщения
    Вы не можете удалять свои сообщения
    Вы не можете голосовать в опросах
    Вы не можете прикреплять файлы к сообщениям
    Вы можете скачивать файлы