новый адрес
Ссылка на приватное зеркало всего за 1$. Внимание количество ограничено!!!

iTunes

1+1

iTunes

мы

WEB-DL

1

iTunes

Чернобыль

iTunes

Ральф против интернета

Лицензия

ПШазам

Лицензия

Оно 2

Лицензия

30
pack

Вам бонус

ВАЖНО

!!Акция!!

Alien_RageХит недели

RePack

Resident Evil 21

ИГРА 18+

pack

RePack

jed

!!Акция!!

Alien_Rage

RePack

fifa19

RePack

Assassins Creed: Odyssey

RePack

NEED FOR SPEED™ PAYBACK

3 сезон

9 сезон

Бесстыжие 9 сезон

Все сериалы

все сериалы на PB.wtf

RePack

FAR CRY 5
Ребята, катастрофически не хватает 1900р. для оплаты серверов за Октябрь (всвязи с блокировками трафик упал в 3 раза), 1-2р., выручайте.
  

Истерия / Delirium (Дэннис Илиадис) [2018, Ужасы, триллер, BDRip] DUB [Лицензия] pb.wtf

Истерия через торрент pb.wtf

Размер: 1.46 GB | Добавлен: 1 год 5 мес. назад | Торрент скачан:256 раз
Скачать  

03-07-2018 14:02 Истерия Скачать торрент  

Истерия / Delirium
Год выпуска: 2018
Страна: США
Жанр: Ужасы, триллер
Продолжительность: 01:35:59
Перевод: Дублированный | Лицензия
Субтитры: отсутствуют

Режиссер: Дэннис Илиадис

rating

В ролях:

Тофер Грейс (Tom), Дженезис Родригез (Lynn), Патришия Кларксон (Brody), Каллэн Мулвей (Alex), Робин Томас (Father), Дэйзи МакКрэкин (Mother), Келли Барксдэйл (Teenage girl), Браден Фицджералд (Young Tom), Коуди Салливан (Young Alex), Марти Эли Шварц (Frank)
Описание:

Бывший пациент клиники для душевнобольных возвращается в роскошный особняк, доставшийся ему после смерти родителей. В этом доме прошло все его детство, и с ним связано много ярких воспоминаний. Но со временем в доме начинают происходить странные и пугающие вещи. Или это все — в его голове?

Качество: BDRip
Формат: AVI

Видео: Xvid, 720x384, ~1530 kbps, 24,000 fps
Аудио: русский, AC3 5.1, 48 kHz, 640 kbps | Лицензия
скриншот  скриншот  скриншот  скриншот  скриншот  

General
Полное имя : F:TorrentDelirium2018BDRip2AVI.avi
Формат : AVI
Формат/Информация : Audio Video Interleave
Размер файла : 1.46 GiB
Продолжительность : 1 h 35 min
Общий поток : 2 179 kb/s
Библиотека кодирования : VirtualDub build 35491/release

Video
Идентификатор : 0
Формат : MPEG-4 Visual
Профиль формата : Advanced Simple@L5
Настройки формата : BVOP2 / Custom Matrix
Параметр BVOP формата : 2
Параметр QPel формата : No
Параметр GMC формата : No warppoints
Параметр матрицы формата : Custom
Идентификатор кодека : XVID
Идентификатор кодека/Подсказка : XviD
Продолжительность : 1 h 35 min
Битрейт : 1 530 kb/s
Ширина : 720 pixels
Высота : 384 pixels
Соотношение сторон : 1.85:1
Частота кадров : 24.000 FPS
Цветовое пространство : YUV
Субдискретизация насыщенности : 4:2:0
Битовая глубина : 8 bits
Тип развёртки : Progressive
Метод сжатия : Lossy
Бит/(Пиксели*Кадры) : 0.231
Размер потока : 1.03 GiB (70%)
Библиотека кодирования : XviD 67

Audio
Идентификатор : 1
Формат : AC-3
Формат/Информация : Audio Coding 3
Идентификатор кодека : 2000
Продолжительность : 1 h 35 min
Вид битрейта : Constant
Битрейт : 640 kb/s
Каналы : 6 channels
Расположение каналов : Front: L C R, Side: L R, LFE
Частота : 48.0 kHz
Частота кадров : 31.250 FPS (1536 SPF)
Битовая глубина : 16 bits
Метод сжатия : Lossy
Размер потока : 439 MiB (29%)
Выравнивание : Aligned on interleaves
Продолжительность промежутка : 42 ms (1.00 video frame)
Время предзагрузки промежутка : 512 ms

pb.wtf



Скачать Истерия через торрент http://i105.fastpic.ru/big/2018/0702/f4/e8902782167b9a479b216fdfcde848f4.jpg Скачать фильм Истерия через торрент бесплантно в хорошем качестве Описание: Бывший пациент клиники для душевнобольных возвращается в роскошный особняк, доставшийся ему после смерти родителей. В этом доме ... 10 10 4
Торрент: Зарегистрирован [2018-07-03 14:02] · скачан: 256 раз
Статус: √ проверено
Размер: 1.46 GB
Как cкачать? Как скачать Истерия через торрент | qTorrent

% Раздел Тема Автор DL S | L
Фильмы 2018 [DVDrip, WEB-DLRip, HDrip] (DUB, MVO) [ 1.46 GB ] Истерия / Delirium [2018 BDRip] - [] Twi7ter Скачать
3 | 0
Фильмы 2018 [DVDrip, WEB-DLRip, HDrip] (DUB, MVO) [ 1.46 GB ] Истерия / Delirium [2018 BDRip-AVC] DUB [] bober100 Скачать
1 | 0
Фильмы (Blu-ray, BD-Remux, HDDVD) [ 20.87 GB ] Истерия / Delirium [2018 BD Remux 1080p] DUB [] bober100 Скачать
1 | 0
R.G. Resident & PiratVoice - Фильмы, Видео [ 2.05 GB ] Истерия / Delirium [2018 HDRip от R.G. Resident] DUB [] -Lexx- Скачать
1 | 0
Фильмы [HD 720p, 1080p] (Хороший звук DUB, MVO) [ 5.89 GB ] Истерия / Delirium [2018 BDRip 720p] DUB [] bober100 Скачать
2 | 0
Фильмы [HD 720p, 1080p] (Хороший звук DUB, MVO) [ 9.58 GB ] Истерия / Delirium [2018 BDRip 1080p] DUB [] bober100 Скачать
1 | 0
Фильмы 2018 [DVDrip, WEB-DLRip, HDrip] (DUB, MVO) [ 1.46 GB ] Истерия / Delirium [2018 WEB-DLRip-AVC] bober100 Скачать
1 | 0

28-11-2019 20:33  

Отключить всю рекламу на сайте

    Дорогой пользователь! Огромная просьба, поблагодарите релизера, оцените раздачу и оставьте свои комментарий, если Вы скачали Истерия через торрент бесплатно! Внесите свою лепту в развитие PiratBit!
    Комментировать посты могут только пользователи прошедшие не сложную регистрацию
    Показать сообщения:    

    Истерия через торрент
    Скачать бесплатно Истерия
    Истерия скачать торрент
    Истерия смотреть онлайн
    Cкачать фильм Истерия бесплатно
    Истерия скачать торрент в хорошем качестве
    Истерия смотреть онлайн бесплатно в хорошем качестве


    Вы не можете начинать темы
    Вы не можете отвечать на сообщения
    Вы не можете редактировать свои сообщения
    Вы не можете удалять свои сообщения
    Вы не можете голосовать в опросах
    Вы не можете прикреплять файлы к сообщениям
    Вы можете скачивать файлы