Ссылка на приватное зеркало всего за 1$. Внимание количество ограничено!!!

OK

1+1

iTunes

мы

OK

1

WEB-DLRip

Джокер

Пифагор

Ведьмак / The Witcher сериал

Лицензия

ПШазам

ОК

Оно 2

iTunes

30
pack

Вам бонус

ВАЖНО

!!Акция!!

Alien_RageХит недели

RePack

Resident Evil 21

ИГРА 18+

pack

RePack

jed

RePack

fifa19

RePack

Assassins Creed: Odyssey

RePack

NEED FOR SPEED™ PAYBACK

4 сезон

9 сезон

Бесстыжие 9 сезон

Все сериалы

все сериалы на PB.wtf

RePack

FAR CRY 5
  

Когда гаснут звёзды / When the Starlight Ends (Адам Сигал) [2016, Фэнтези, драма, комедия, WEB-DL 720p] MVO ["Синема УС"] pb.wtf

Когда гаснут звёзды через торрент pb.wtf

Размер: 2.96 GB | Добавлен: 1 год 6 мес. назад | Торрент скачан:11 раз
Скачать  

03-07-2018 15:32 Когда гаснут звёзды Скачать торрент  

Когда гаснут звёзды / When the Starlight EndsГод выпуска: 2016
Страна: США
Жанр: Фэнтези, драма, комедия
Продолжительность: 01:28:05
Перевод: Любительский (многоголосый) | "Синема УС"
Субтитры: отсутствуют

Режиссер: Адам Сигал

rating

В ролях:

Сэм Хьюэн, Арабелла Оз, Дэвид Аркетт, Шон Патрик Флэнер, Армандо Гутьеррез, Хантер Гомез, Сет Бэйли, Кэролин Крисс, Джорджия Белл, Мэри Червинский

Описание:

Эксцентричный писатель пытается выбрать между любовью всей своей жизни и своей работой. Оглядываясь в прошлое и стараясь заглянуть в будущее, он пытается понять, правильный он сделал выбор или нет.

Качество: WEB-DL 720p
Формат: MKV

Видео: 4 418 kb/s, 1280x544
Аудио#1: Русский, (AC3, 2 ch, 384 Кбит/с)
скриншот  скриншот  скриншот  

Общее
Уникальный идентификатор : 187044943924155469171110088887489529821 (0x8CB78BBC7F11A20CBE12AAC3CE7407DD)
Полное имя : D:\When.the.Starlight.Ends.2016.P.WEB-DL.72Op_KOSHARA.mkv
Формат : Matroska
Версия формата : Version 2
Размер файла : 2,96 Гбайт
Продолжительность : 1 ч. 28 м.
Режим общего битрейта : Переменный
Общий поток : 4804 Кбит/сек
Дата кодирования : UTC 2018-07-03 11:02:12
Программа кодирования : mkvmerge v8.3.0 ('Over the Horizon') 64bit
Библиотека кодирования : libebml v1.3.1 + libmatroska v1.4.2

Видео
Идентификатор : 1
Формат : AVC
Формат/Информация : Advanced Video Codec
Профиль формата : High@L4.1
Параметр CABAC формата : Да
Параметр RefFrames формата : 4 кадра
Идентификатор кодека : V_MPEG4/ISO/AVC
Продолжительность : 1 ч. 28 м.
Вид битрейта : Переменный
Битрейт : 4418 Кбит/сек
Максимальный битрейт : 5000 Кбит/сек
Ширина : 1280 пикселей
Высота : 544 пикселя
Соотношение сторон : 2,35:1
Режим частоты кадров : Постоянный
Частота кадров : 23,976 (24000/1001) кадра/сек
Стандарт вещания : Component
Цветовое пространство : YUV
Субдискретизация насыщенности : 4:2:0
Битовая глубина : 8 бит
Тип развёртки : Прогрессивная
Бит/(Пиксели*Кадры) : 0.259
Размер потока : 2,66 Гбайт (90%)
Default : Да
Forced : Нет
Цветовой диапазон : Limited
Основные цвета : BT.709
Характеристики трансфера : BT.709
Коэффициенты матрицы : BT.709

Аудио
Идентификатор : 2
Формат : AC-3
Формат/Информация : Audio Coding 3
Расширение режима : CM (complete main)
Параметр Endianness формата : Big
Идентификатор кодека : A_AC3
Продолжительность : 1 ч. 28 м.
Вид битрейта : Постоянный
Битрейт : 384 Кбит/сек
Каналы : 2 канала
Расположение каналов : Front: L R
Частота : 48,0 КГц
Частота кадров : 31,250 кадров/сек (1536 spf)
Метод сжатия : С потерями
Размер потока : 242 Мбайт (8%)
Default : Да
Forced : Нет

pb.wtf



Скачать Когда гаснут звёзды через торрент https://b.radikal.ru/b02/1807/28/1e3e08db6e3a.jpg Скачать фильм Когда гаснут звёзды через торрент бесплантно в хорошем качестве Описание: Эксцентричный писатель пытается выбрать между любовью всей своей жизни и своей работой. Оглядываясь в прошлое и стараясь ... 10 10 2
Торрент: Зарегистрирован [2018-07-03 15:32] · скачан: 11 раз
Статус: T временная
Размер: 2.96 GB
Как cкачать? Как скачать Когда гаснут звёзды через торрент | qTorrent

% Раздел Тема Автор DL S | L
T Фильмы (мультфильмы) cо спонсором показа (Новинки AVI/MKV) [ 1.37 GB ] Когда гаснут звёзды / When the Starlight Ends [2016 WEB-DLRip] MVO ["Синема УС"] bober100 Скачать
1 | 0

28-11-2019 20:33  

Отключить всю рекламу на сайте

    Дорогой пользователь! Огромная просьба, поблагодарите релизера, оцените раздачу и оставьте свои комментарий, если Вы скачали Когда гаснут звёзды через торрент бесплатно! Внесите свою лепту в развитие PiratBit!
    Комментировать посты могут только пользователи прошедшие не сложную регистрацию
    Показать сообщения:    

    Когда гаснут звёзды через торрент
    Скачать бесплатно Когда гаснут звёзды
    Когда гаснут звёзды скачать торрент
    Когда гаснут звёзды смотреть онлайн
    Cкачать фильм Когда гаснут звёзды бесплатно
    Когда гаснут звёзды скачать торрент в хорошем качестве
    Когда гаснут звёзды смотреть онлайн бесплатно в хорошем качестве


    Вы не можете начинать темы
    Вы не можете отвечать на сообщения
    Вы не можете редактировать свои сообщения
    Вы не можете удалять свои сообщения
    Вы не можете голосовать в опросах
    Вы не можете прикреплять файлы к сообщениям
    Вы можете скачивать файлы