Ссылка на приватное зеркало всего за 1$. Внимание количество ограничено!!!

OK

1+1

iTunes

мы

OK

1

WEB-DLRip

Джокер

Пифагор

Ведьмак / The Witcher сериал

iTunes

ПШазам

ОК

Оно 2

iTunes

30
pack

Вам бонус

ВАЖНО

!!Акция!!

Alien_RageХит недели

RePack

Resident Evil 21

ИГРА 18+

pack

RePack

jed

RePack

fifa19

RePack

Assassins Creed: Odyssey

RePack

NEED FOR SPEED™ PAYBACK

4 сезон

9 сезон

Бесстыжие 9 сезон

Все сериалы

все сериалы на PB.wtf

RePack

FAR CRY 5
  

Валькины паруса (Николай Жуков) [1974 г., Детский, семейный, драма, киноповесть, экранизация, DVDRip] pb.wtf

Валькины паруса через торрент pb.wtf

Размер: 1 GB | Добавлен: 1 год 6 мес. назад | Торрент скачан:3 раза
Скачать  

03-07-2018 15:59 Валькины паруса Скачать торрент  

Валькины паруса
Год выпуска: 1974
Страна: СССР
Жанр: Детский, семейный, драма, киноповесть, экранизация
Продолжительность: 01:10:57
Субтитры: Отсутствуют

Режиссер: Николай Жуков

rating

В ролях: Андрей Цепкало, Ольга Батракова, Владимир Бурухин, Лариса Вадько, Герасим Котовский, Евгений Лоцман, Владимир Протасенко, Сергей Санников, Борис Семеров, Феликс Смирнов, Игорь Тыминский

Описание: По произведению Владислава Крапивина «Валькины друзья и паруса». Валька Бегунов мечтал о море и воплощал свои мечты в рисунках. И еще он мечтал стать пионером — когда в пионеры принимали весь класс, он болел, а самому «проситься в пионеры» он считал невозможным. «Разве можно об этом просить?» — недоумённо говорил он, когда в пионерлагере, где он отдыхал последнее лето, спросили, почему он не пионер. И Вальку принимает в пионеры отряд барабанщиков пионерского лагеря, на заре, над обрывом, под торжественный бой барабанов, звучащий только для него. Радостный, с пионерским галстуком на шее, возвращается Валька в школу, но тут у него начинаются неприятности. Разве можно сравнить пионерскую жизнь отряда барабанщиков, принявшего Вальку, с «коллективом» пионерского отряда класса, тем более, что и отряда-то толком нет, а есть класс, есть классная руководительница-русичка, задерганная другими заботами помимо своих учеников, есть чрезмерно принципиальный и туповато-пунктуальный пионервожатый. И Валька мало участвует в этой формальной пионерской жизни, хотя безотказно делает рисунки для школьной стенгазеты. И, увлекшись рисованием очередной картины, Валька забывает придти на сбор металлолома. Формалист-пионервожатый и классная руководительнца обвиняют Вальку в пассивности и ставят на Совете дружины вопрос о его исключении из пионеров. А ведь пионерский галстук Вальке дороже, чем всем другим: его ведь принимали «по настоящему», а не скопом, всем классом, как других! Ему горько и обидно… Но, оказывается, у Вальки есть и друзья, причем не только из своего класса, а еще и из младшей детворы, с которой, оказывается, можно дружить и на равных, и преподаватель рисования, единственный из взрослых, который понимает его. И в конце концов оказывается, что «коллектив» — это одно, а друзья из этого коллектива — это совсем другое, и что дороже, разумеется, ясно…

Качество: DVDRip
Формат: AVI
Видео кодек: DivX
Аудио кодек: MP3
Видео: Видео: DivX, 704x528 , 25.0fps, 1881 Kbps
Аудио#1: MP3 , 2 ch , 48 kHz , 128 kbps
Общее
Полное имя : D:Valkiny.parusa.1974.DivX.DVDRip.avi
Формат : AVI
Формат/Информация : Audio Video Interleave
Размер файла : 1,00 Гбайт
Продолжительность : 1 ч. 10 м.
Общий поток : 2018 Кбит/сек
Программа кодирования : VirtualDubMod 1.5.10.3 (build 2550/release)
Библиотека кодирования : VirtualDubMod build 2550/release

Видео
Идентификатор : 0
Формат : MPEG-4 Visual
Параметр BVOP формата : 1
Параметр QPel формата : Нет
Параметр GMC формата : Без точки перехода
Параметр матрицы формата : Default (H.263)
Режим смешивания : Сжатый битовый поток
Идентификатор кодека : DX50
Идентификатор кодека/Подсказка : DivX 5
Продолжительность : 1 ч. 10 м.
Битрейт : 1881 Кбит/сек
Ширина : 704 пикселя
Высота : 528 пикселей
Соотношение сторон : 4:3
Частота кадров : 25,000 кадров/сек
Цветовое пространство : YUV
Субдискретизация насыщенности : 4:2:0
Битовая глубина : 8 бит
Тип развёртки : Прогрессивная
Метод сжатия : С потерями
Бит/(Пиксели*Кадры) : 0.202
Размер потока : 954 Мбайт (93%)
Библиотека кодирования : DivX 6.8.5 (UTC 2009-08-20)

Аудио
Идентификатор : 1
Формат : MPEG Audio
Версия формата : Version 1
Профиль формата : Layer 3
Режим : Joint stereo
Идентификатор кодека : 55
Идентификатор кодека/Подсказка : MP3
Продолжительность : 1 ч. 10 м.
Вид битрейта : Постоянный
Битрейт : 128 Кбит/сек
Каналы : 2 канала
Частота : 48,0 КГц
Метод сжатия : С потерями
Размер потока : 64,9 Мбайт (6%)
Выравнивание : Соединение по промежуткам
Продолжительность промежутка : 40 мс. (1,00 видеокадр)
Время предзагрузки промежутка : 504 мс.

pb.wtf



Скачать Валькины паруса через торрент https://c.radikal.ru/c22/1807/bf/8510d034e796.jpg Скачать фильм Валькины паруса через торрент бесплантно в хорошем качестве Описание: По произведению Владислава Крапивина «Валькины друзья и паруса». Валька Бегунов мечтал о море и воплощал свои мечты в рисунках. И ... 10 10 3
Торрент: Зарегистрирован [2018-07-03 15:59] · скачан: 3 раз
Статус: √ проверено
Размер: 1 GB
Как cкачать? Как скачать Валькины паруса через торрент | qTorrent

28-11-2019 20:33  

Отключить всю рекламу на сайте

    Дорогой пользователь! Огромная просьба, поблагодарите релизера, оцените раздачу и оставьте свои комментарий, если Вы скачали Валькины паруса через торрент бесплатно! Внесите свою лепту в развитие PiratBit!
    Комментировать посты могут только пользователи прошедшие не сложную регистрацию
    Показать сообщения:    

    Валькины паруса через торрент
    Скачать бесплатно Валькины паруса
    Валькины паруса скачать торрент
    Валькины паруса смотреть онлайн
    Cкачать фильм Валькины паруса бесплатно
    Валькины паруса скачать торрент в хорошем качестве
    Валькины паруса смотреть онлайн бесплатно в хорошем качестве


    Вы не можете начинать темы
    Вы не можете отвечать на сообщения
    Вы не можете редактировать свои сообщения
    Вы не можете удалять свои сообщения
    Вы не можете голосовать в опросах
    Вы не можете прикреплять файлы к сообщениям
    Вы можете скачивать файлы