Ссылка на приватное зеркало нашего сайта всего за 1$. Внимание количество ограничено!!!

2 сезон

iTunes

1 сезон

1

iTunes

iTunes

iTunes

1 сезон

RePack

30

ИГРА 18+

pack

ВАЖНО

!!Акция!!

Alien_RageХит недели

RePack

MK11
pack

Забери бонус

RePack

jed

!!Акция!!

Alien_Rage

RePack

fifa19

RePack

Assassins Creed: Odyssey

RePack

NEED FOR SPEED™ PAYBACK

4 сезон

9 сезон

Бесстыжие 9 сезон

Все сериалы

все сериалы на PB.wtf

RePack

FAR CRY 5
  

Игрок / Сезон: 1 / Серии: 1-12 из 12 (Юрий Мороз) [2018, Драма, криминал, SATRip-AVC] pb.wtf

Игрок через торрент pb.wtf

Размер: 8.06 GB | Добавлен: 2 года 3 мес. назад | Торрент скачан:485 раз
Скачать  

03-07-2018 16:32 Игрок Скачать торрент  

Игрок
Год выпуска: 2018
Страна: Россия
Жанр: Драма, криминал
Продолжительность: ~ 00:45:00
Субтитры: отсутствуют

Режиссер: Юрий Мороз

В ролях:

Максим Матвеев, Артём Ткаченко, Александра Ребенок, Николай Козак, Роман Мадянов, Игорь Миркурбанов, Иван Добронравов, Евгения Крегжде, Вячеслав Кулаков, Фёдор Румянцев, Сергей Рубашкин, Екатерина Сахарова, Вадим Долгачёв, Александр Мотасов, Александр Шаляпин, Александр Пацевич, Марина Кондратьева (II), Иван Гришанов, Антон Пулит, Илья Ригин, Максим Глотов, Валентина Шкенёва

Описание:

Аспирант МГУ Никита Пирогов мог бы стать великим математиком, а стал воротилой игорного бизнеса, потому что однажды по просьбе брата он согласился разработать схему, как мошеннически обыграть казино… Остросюжетная криминальная драма об изнанке игорного бизнеса в России с момента его расцвета в 2005 году до нынешнего ухода казино в «подполье».

Качество: SATRip-AVC
Формат: MKV

Видео: MPEG-4 AVC, ~ 1900 Кбит/с, 720x400
Аудио: Русский (AC3, 2 ch, 224 Кбит/с)
скриншот   скриншот   скриншот   скриншот   скриншот  

Общее
Уникальный идентификатор : 58121251979371615707671083834246707973 (0x2BB9BEF72F357C3C92A1EF0479543B05)
Полное имя : C:\Игрок\01.mkv
Формат : Matroska
Версия формата : Version 2
Размер файла : 685 Мбайт
Продолжительность : 45 м. 0 с.
Режим общего битрейта : Переменный
Общий поток : 2128 Кбит/сек
Дата кодирования : UTC 2018-07-13 07:08:13
Программа кодирования : mkvmerge v19.0.0 ('Brave Captain') 32-bit
Библиотека кодирования : libebml v1.3.5 + libmatroska v1.4.8

Видео
Идентификатор : 2
Формат : AVC
Формат/Информация : Advanced Video Codec
Профиль формата : High@L3
Параметр CABAC формата : Да
Параметр RefFrames формата : 7 кадров
Идентификатор кодека : V_MPEG4/ISO/AVC
Продолжительность : 45 м. 0 с.
Вид битрейта : Переменный
Битрейт : 1900 Кбит/сек
Максимальный битрейт : 5400 Кбит/сек
Ширина : 720 пикселей
Высота : 400 пикселей
Соотношение сторон : 16:9
Режим частоты кадров : Постоянный
Частота кадров : 23,976 (24000/1001) кадра/сек
Цветовое пространство : YUV
Субдискретизация насыщенности : 4:2:0
Битовая глубина : 8 бит
Тип развёртки : Прогрессивная
Бит/(Пиксели*Кадры) : 0.275
Размер потока : 599 Мбайт (87%)
Библиотека кодирования : x264 core 148
Настройки программы : cabac=1 / ref=7 / deblock=1:0:0 / analyse=0x3:0x113 / me=hex / subme=7 / psy=1 / psy_rd=1.00:0.00 / mixed_ref=1 / me_range=16 / chroma_me=1 / trellis=1 / 8x8dct=1 / cqm=1 / deadzone=21,11 / fast_pskip=1 / chroma_qp_offset=-2 / threads=12 / lookahead_threads=2 / sliced_threads=0 / slices=1 / nr=0 / decimate=1 / interlaced=0 / minigop=0 / stitchable=1 / constrained_intra=0 / bframes=3 / b_pyramid=0 / b_adapt=1 / b_bias=0 / direct=1 / weightb=1 / open_gop=0 / weightp=2 / keyint=250 / keyint_min=23 / scenecut=40 / intra_refresh=0 / rc_lookahead=40 / rc=abr / mbtree=1 / bitrate=1900 / ratetol=1.0 / qcomp=0.60 / qpmin=3 / qpmax=69 / qpstep=4 / vbv_maxrate=5400 / vbv_bufsize=5400 / nal_hrd=vbr / filler=0 / ip_ratio=1.40 / aq=1:1.00
Default : Да
Forced : Нет

Аудио
Идентификатор : 1
Формат : AC-3
Формат/Информация : Audio Coding 3
Расширение режима : CM (complete main)
Параметр Endianness формата : Big
Идентификатор кодека : A_AC3
Продолжительность : 45 м. 0 с.
Вид битрейта : Постоянный
Битрейт : 224 Кбит/сек
Каналы : 2 канала
Расположение каналов : Front: L R
Частота : 48,0 КГц
Частота кадров : 31,250 кадров/сек (1536 spf)
Метод сжатия : С потерями
Размер потока : 72,1 Мбайт (11%)
Default : Да
Forced : Нет

Внимание! Раздача ведётся путём добавления новых серий; при каждом добавлении создаётся новый торрент. Чтобы начать докачку новой серии, пользователям необходимо сделать следующее:
(1) остановить скачивание,
(2) удалить старый торрент у себя из клиента (старые серии удалять не надо),
(3) скачать новый торрент и запустить его у себя в клиенте вместо старого, при этом указать клиенту путь в старую папку куда и должно происходить скачивание новых серий.
Ваш клиент при этом должен произвести хеширование (проверку) старой папки (если не производит сам - помогите ему сделать это), и будет докачивать только те серии которых у вас ещё нет. Старые серии при этом не удаляются, а продолжают раздаваться!
Eсли вы уже удалили старые серии, то предотвратить повторную закачку старых серий можно, отжав галочку в соответствующих местах при запуске нового торрента. По возможности, желательно не удалять старые серии как можно дольше чтобы релизёр не столько продолжал раздавать старые серии, а смог сконцентрироваться на новых.
pb.wtf



Скачать Игрок через торрент https://img11.lostpic.net/2018/07/05/711497556c5f4058f4982d3ebbbf9e30.jpg Скачать фильм Игрок через торрент бесплантно в хорошем качестве Описание: Аспирант МГУ Никита Пирогов мог бы стать великим математиком, а стал воротилой игорного бизнеса, потому что однажды по просьбе ... 9.4 10 19
Торрент: Зарегистрирован [2018-07-13 07:28] · скачан: 485 раз
Статус: √ проверено
Размер: 8.06 GB
Как cкачать? Как скачать Игрок через торрент | qTorrent

% Раздел Тема Автор DL S | L
Наши сериалы [ 8.74 GB ] Игрок / Сезон: 1 / Серии: 1-12 из 12 [2018 SATRip] bober100 Скачать
1 | 0


Последний раз редактировалось: bober100 (2018-07-13 09:39), всего редактировалось 3 раз(а)

28-11-2019 20:33  

Отключить всю рекламу на сайте

04-07-2018 01:19 Игрок Скачать торрент  

итересный хоть? на брехлопоиске серь датирован 2016 годом pb.wtf



05-07-2018 16:05 Игрок Скачать торрент  

Будет продолжение? Или первый канал обрубил?pb.wtf



07-07-2018 13:14 Игрок Скачать торрент  

Сериал достойный, игра актеров нравится, есть ляпы, основной это автомобили которые не выпускались в 2005 году, на мой взгляд режет глаз. А так золото. И основной вопрос - где продолжение?pb.wtf



09-07-2018 03:05 Игрок Скачать торрент  

Норм, продолжение будет?pb.wtf



13-07-2018 07:33 Игрок Скачать торрент  

о ! продолжение . спасибо товарищ )))pb.wtf



17-07-2018 21:20 Игрок Скачать торрент  

Когда будет нормальное качесво?, да и без казлино.......pb.wtf



18-07-2018 18:09 Игрок Скачать торрент  

Мне очень понравился. Есть, конечно, ляпы, но если не особо придираться, смотрится с интересом.pb.wtf



27-07-2018 07:18 Игрок Скачать торрент  

pb.wtf



    Дорогой пользователь! Огромная просьба, поблагодарите релизера, оцените раздачу и оставьте свои комментарий, если Вы скачали Игрок через торрент бесплатно! Внесите свою лепту в развитие PiratBit!
    Комментировать посты могут только пользователи прошедшие не сложную регистрацию
    Показать сообщения:    

    Игрок через торрент
    Скачать бесплатно Игрок
    Игрок скачать торрент
    Игрок смотреть онлайн
    Cкачать фильм Игрок бесплатно
    Игрок скачать торрент в хорошем качестве
    Игрок смотреть онлайн бесплатно в хорошем качестве


    Вы не можете начинать темы
    Вы не можете отвечать на сообщения
    Вы не можете редактировать свои сообщения
    Вы не можете удалять свои сообщения
    Вы не можете голосовать в опросах
    Вы не можете прикреплять файлы к сообщениям
    Вы можете скачивать файлы