Ссылка на приватное зеркало нашего сайта всего за 1$. Внимание количество ограничено!!!

2 сезон

iTunes

1 сезон

1

iTunes

iTunes

iTunes

1 сезон

RePack

30

ИГРА 18+

pack

ВАЖНО

!!Акция!!

Alien_RageХит недели

RePack

MK11
pack

Забери бонус

RePack

jed

!!Акция!!

Alien_Rage

RePack

fifa19

RePack

Assassins Creed: Odyssey

RePack

NEED FOR SPEED™ PAYBACK

4 сезон

9 сезон

Бесстыжие 9 сезон

Все сериалы

все сериалы на PB.wtf

RePack

FAR CRY 5
  

Смешная жизнь / Сезон: 1 / Серии: 1-8 из 8 (Владимир Краснопольский, Валерий Усков) [2015, Трагикомедия, WEB-DLRip] pb.wtf

Смешная жизнь через торрент pb.wtf

Размер: 5.08 GB | Добавлен: 2 года 3 мес. назад | Торрент скачан:48 раз
Скачать  

03-07-2018 17:59 Смешная жизнь Скачать торрент  

Смешная жизньГод выпуска: 2015
Страна: Россия
Жанр: Трагикомедия
Продолжительность: ~ 00:50:00
Субтитры: отсутствуют

Режиссер: Владимир Краснопольский, Валерий Усков



В ролях:

Татьяна Кравченко, Александр Волков, Ольга Павловец, Даша Отрошко, Евгений Князев, Константин Глушков, Сергей Степанченко, Анна Стрельцова, Алла Юганова, Елена Котельникова, Алексей Зубков, Людмила Баталова, Зинаида Зубкова, Владимир Мищанчук, Геннадий Сайфулин, Анжела Кораблёва, Сергей Новицкий, Костя Капский, Константин Конюхов

Описание:

Сериал расскажет о жизни простой и обаятельной женщине Таисии. Она живет в маленьком городке, у нее есть собственный дом, приличная пенсии, что еще для счастья нужно? В жизни Таисия пережила многое, и взлеты, и падения, и радости, и горечи, и любовь, и слезы. За плечами большой опыт. В последнее время у Таси все просто замечательно. Сын живет в Москве, он успешный бизнесмен, квартира есть, машина есть, деньги есть. Она живет и наслаждается свое жизнью. Но в один злосчастный день, она лишается этой счастливой жизни. В один миг все рухнуло, как карточный домик. Ее дом сгорел, и она осталась без ничего. Она осталась без дома, без вещей, без денег и документов. Что же делать? Как жить дальше? Но, слава Богу, сын очень любил свою мать, и забирает ее в столицу. Селит ее в квартиру и берет на себя все ее затраты. Как Таисия будет жить в столице, где постоянно шум, гам, смог, дым, огромные цены и кучи людей? Сможет ли она адаптироваться к мегаполису?...

Качество: WEB-DLRip
Формат: AVI

Видео: XviD, ~ 1600 Кбит/с, 720x400
Аудио: AC3, 2 ch, 192 Кбит/с
скриншот  скриншот  скриншот  скриншот  

Общее
Полное имя : D:\Смешная жизнь.(2015).WEB-DLRip.Files-x\01.Смешная жизнь.(2015).WEB-DLRip.Files-x.avi
Формат : AVI
Формат/Информация : Audio Video Interleave
Размер файла : 650 Мбайт
Продолжительность : 52 м. 13 с.
Общий поток : 1740 Кбит/сек
Программа кодирования : VirtualDubMod 1.5.10.3 | www.virtualdub-fr.org || (build 2550/release)
Библиотека кодирования : VirtualDubMod build 2550/release

Видео
Идентификатор : 0
Формат : MPEG-4 Visual
Профиль формата : Advanced Simple@L5
Параметр BVOP формата : 1
Параметр QPel формата : Нет
Параметр GMC формата : Без точки перехода
Параметр матрицы формата : Выборочная
Идентификатор кодека : XVID
Идентификатор кодека/Подсказка : XviD
Продолжительность : 52 м. 13 с.
Битрейт : 1538 Кбит/сек
Ширина : 720 пикселей
Высота : 400 пикселей
Соотношение сторон : 16:9
Частота кадров : 25,000 кадров/сек
Цветовое пространство : YUV
Субдискретизация насыщенности : 4:2:0
Битовая глубина : 8 бит
Тип развёртки : Прогрессивная
Метод сжатия : С потерями
Бит/(Пиксели*Кадры) : 0.214
Размер потока : 574 Мбайт (88%)
Библиотека кодирования : XviD 73

Аудио
Идентификатор : 1
Формат : AC-3
Формат/Информация : Audio Coding 3
Расширение режима : CM (complete main)
Параметр Endianness формата : Big
Идентификатор кодека : 2000
Продолжительность : 52 м. 12 с.
Вид битрейта : Постоянный
Битрейт : 192 Кбит/сек
Каналы : 2 канала
Расположение каналов : Front: L R
Частота : 48,0 КГц
Частота кадров : 31,250 кадров/сек (1536 spf)
Метод сжатия : С потерями
Размер потока : 71,7 Мбайт (11%)
Выравнивание : Разделение по промежуткам
Продолжительность промежутка : 40 мс. (1,00 видеокадр)
Время предзагрузки промежутка : 500 мс.

pb.wtf



Скачать Смешная жизнь через торрент https://i105.fastpic.ru/big/2018/0422/6f/187c0c73167472c07c608c111a05476f.jpg Скачать фильм Смешная жизнь через торрент бесплантно в хорошем качестве Описание: Сериал расскажет о жизни простой и обаятельной женщине Таисии. Она живет в маленьком городке, у нее есть собственный дом, ... 10 10 3
Торрент: Зарегистрирован [2018-07-03 17:59] · скачан: 48 раз
Статус: √ проверено
Размер: 5.08 GB
Как cкачать? Как скачать Смешная жизнь через торрент | qTorrent

% Раздел Тема Автор DL S | L
Наши сериалы [ 9.68 GB ] Смешная жизнь / Сезон: 1 / Серии: 1-8 из 8 [2015 Траги WEB-DL 720p] bober100 Скачать
1 | 0
Наши сериалы [ 6.38 GB ] Смешная жизнь / Сезон: 1 / Серии: 1-8 из 8 [2015 Траги HDTVRip-AVC] bober100 Скачать
1 | 0

28-11-2019 20:33  

Отключить всю рекламу на сайте

    Дорогой пользователь! Огромная просьба, поблагодарите релизера, оцените раздачу и оставьте свои комментарий, если Вы скачали Смешная жизнь через торрент бесплатно! Внесите свою лепту в развитие PiratBit!
    Комментировать посты могут только пользователи прошедшие не сложную регистрацию
    Показать сообщения:    

    Смешная жизнь через торрент
    Скачать бесплатно Смешная жизнь
    Смешная жизнь скачать торрент
    Смешная жизнь смотреть онлайн
    Cкачать фильм Смешная жизнь бесплатно
    Смешная жизнь скачать торрент в хорошем качестве
    Смешная жизнь смотреть онлайн бесплатно в хорошем качестве


    Вы не можете начинать темы
    Вы не можете отвечать на сообщения
    Вы не можете редактировать свои сообщения
    Вы не можете удалять свои сообщения
    Вы не можете голосовать в опросах
    Вы не можете прикреплять файлы к сообщениям
    Вы можете скачивать файлы