Ссылка на приватное зеркало нашего сайта всего за 1$. Внимание количество ограничено!!!

2 сезон

iTunes

1 сезон

1

2 сезон

2 сезон

iTunes

1 сезон

RePack

30

Новинка

ВАЖНО

ИГРА 18+

pack

RePack

MK11
pack

Забери бонус

RePack

jed

!!Акция!!

Alien_Rage

RePack

fifa19

RePack

Assassins Creed: Odyssey

RePack

NEED FOR SPEED™ PAYBACK

4 сезон

9 сезон

Бесстыжие 9 сезон

Все сериалы

все сериалы на PB.wtf

RePack

FAR CRY 5
  

Тебя никогда здесь не было / You Were Never Really Here (Линн Рэмси) [2017, триллер, драма, детектив, BD Remux 1080p] 2xMVO [HDrezka Studio, Лицензия] pb.wtf

Тебя никогда здесь не было через торрент pb.wtf

Размер: 20.24 GB | Добавлен: 2 года 5 мес. назад | Торрент скачан:27 раз
Скачать  

03-07-2018 22:21 Тебя никогда здесь не было Скачать торрент  

Тебя никогда здесь не было / You Were Never Really Here
Год выпуска: 2017
Страна: Великобритания Франция США
Жанр: триллер, драма, детектив
Продолжительность: 01:29:29
Перевод:

#1. Профессиональный многоголосый | Лицензия
#2. Профессиональный (многоголосый) | HDRezka studio

Субтитры: Русские (full), английские

Режиссер: Линн Рэмси

rating

В ролях:

Хоакин Феникс, Екатерина Самсонова, Алекс Манетт, Джон Доумен, Джудит Анна Робертс, Алессандро Нивола, Данте Перейра-Олсон

Описание:

У сурового Джо непростая судьба. Он никого не боится, лишь вспышки воспоминаний заставляют его вздрагивать. Безжалостный герой-одиночка, идущий напролом ради спасения слабых. Для Нины, юной дочери сенатора, Джо — единственная надежда. И даже самые изощрённые и жестокие силы не должны помешать ему вызволить её из ада, в который она попала...

Качество: BD Remux 1080p
Формат: MKV

Видео: MPEG-4 AVC, 1920x1080, 24.8 Mbit/s, 23.976 fps
Аудио#1: 48 kHz, DTS-HD MA, 5.1, 3406 Kbps | Лицензия | RUS |
Аудио#2: 48 kHz, AC3, 5.1, 640 Kbps | Лицензия | RUS |
Аудио#3: 48 kHz, AC3, 2.0, 192 Kbps | HDRezka Studio | RUS |
Аудио#4: 48 kHz, DTS-HD MA, 5.1, 3393 Kbps | Оригинал | ENG |
скриншот   скриншот   скриншот   скриншот   скриншот  

General
Unique ID : 203464767709652371498879554547979287785 (0x9911E38D6055BBFF918517FB1F4A7CE9)
Complete name : D:Video111You.Were.Never.Really.Here.2017.BDREMUX.1080p.ExKinoRay.mkv
Format : Matroska
Format version : Version 4 / Version 2
File size : 20.2 GiB
Duration : 1 h 29 min
Overall bit rate mode : Variable
Overall bit rate : 32.4 Mb/s
Movie name : You Were Never Really Here 2017 from ExKinoRay
Encoded date : UTC 2018-07-03 21:42:06
Writing application : mkvmerge v7.3.0 ('Nouages') 64bit built on Oct 22 2014 18:53:34
Writing library : libebml v1.3.0 + libmatroska v1.4.1

Video
ID : 1
Format : AVC
Format/Info : Advanced Video Codec
Format profile : High@L4.1
Format settings : CABAC / 4 Ref Frames
Format settings, CABAC : Yes
Format settings, ReFrames : 4 frames
Codec ID : V_MPEG4/ISO/AVC
Duration : 1 h 29 min
Bit rate mode : Variable
Bit rate : 24.8 Mb/s
Maximum bit rate : 30.0 Mb/s
Width : 1 920 pixels
Height : 1 080 pixels
Display aspect ratio : 16:9
Frame rate mode : Constant
Frame rate : 24.000 FPS
Standard : NTSC
Color space : YUV
Chroma subsampling : 4:2:0
Bit depth : 8 bits
Scan type : Progressive
Bits/(Pixel*Frame) : 0.497
Stream size : 15.5 GiB (76%)
Language : English
Default : Yes
Forced : No
Color range : Limited
Color primaries : BT.709
Transfer characteristics : BT.709
Matrix coefficients : BT.709

Audio #1
ID : 2
Format : DTS
Format/Info : Digital Theater Systems
Format profile : MA / Core
Codec ID : A_DTS
Duration : 1 h 29 min
Bit rate mode : Variable / Constant
Bit rate : 3 406 kb/s / 1 509 kb/s
Channel(s) : 6 channels
Channel positions : Front: L C R, Side: L R, LFE
Sampling rate : 48.0 kHz
Frame rate : 93.750 FPS (512 SPF)
Bit depth : 24 bits
Compression mode : Lossless / Lossy
Stream size : 2.13 GiB (11%)
Title : License
Language : Russian
Default : No
Forced : No

Audio #2
ID : 3
Format : AC-3
Format/Info : Audio Coding 3
Codec ID : A_AC3
Duration : 1 h 29 min
Bit rate mode : Constant
Bit rate : 640 kb/s
Channel(s) : 6 channels
Channel positions : Front: L C R, Side: L R, LFE
Sampling rate : 48.0 kHz
Frame rate : 31.250 FPS (1536 SPF)
Bit depth : 16 bits
Compression mode : Lossy
Stream size : 409 MiB (2%)
Title : License
Language : Russian
Service kind : Complete Main
Default : No
Forced : No

Audio #3
ID : 4
Format : AC-3
Format/Info : Audio Coding 3
Codec ID : A_AC3
Duration : 1 h 29 min
Bit rate mode : Constant
Bit rate : 192 kb/s
Channel(s) : 2 channels
Channel positions : Front: L R
Sampling rate : 48.0 kHz
Frame rate : 31.250 FPS (1536 SPF)
Bit depth : 16 bits
Compression mode : Lossy
Stream size : 123 MiB (1%)
Title : MVO [HDRezka]
Language : Russian
Service kind : Complete Main
Default : No
Forced : No

Audio #4
ID : 5
Format : DTS
Format/Info : Digital Theater Systems
Format profile : MA / Core
Codec ID : A_DTS
Duration : 1 h 29 min
Bit rate mode : Variable / Constant
Bit rate : 3 393 kb/s / 1 509 kb/s
Channel(s) : 6 channels
Channel positions : Front: L C R, Side: L R, LFE
Sampling rate : 48.0 kHz
Frame rate : 93.750 FPS (512 SPF)
Bit depth : 24 bits
Compression mode : Lossless / Lossy
Stream size : 2.12 GiB (10%)
Title : Original
Language : English
Default : No
Forced : No

Text #1
ID : 6
Format : UTF-8
Codec ID : S_TEXT/UTF8
Codec ID/Info : UTF-8 Plain Text
Duration : 1 h 21 min
Bit rate : 25 b/s
Count of elements : 358
Stream size : 15.3 KiB (0%)
Title : Full
Language : Russian
Default : No
Forced : No

Text #2
ID : 7
Format : UTF-8
Codec ID : S_TEXT/UTF8
Codec ID/Info : UTF-8 Plain Text
Duration : 1 h 20 min
Bit rate : 23 b/s
Count of elements : 502
Stream size : 13.8 KiB (0%)
Title : Full
Language : English
Default : No
Forced : No

Menu
00:00:00.000 : en:Chapter 1
00:11:50.292 : en:Chapter 2
00:22:44.375 : en:Chapter 3
00:31:55.833 : en:Chapter 4
00:42:47.375 : en:Chapter 5
00:53:22.583 : en:Chapter 6
01:01:47.250 : en:Chapter 7
01:09:53.625 : en:Chapter 8

pb.wtf



Скачать Тебя никогда здесь не было через торрент http://d.radikal.ru/d43/1804/c9/4ce05ec805cd.png Скачать фильм Тебя никогда здесь не было через торрент бесплантно в хорошем качестве Описание: У сурового Джо непростая судьба. Он никого не боится, лишь вспышки воспоминаний заставляют его вздрагивать. Безжалостный ... 10 10 4
Info! Золотая раздача, скачанное не засчитывается.
Торрент: Зарегистрирован [2018-07-03 22:21] · скачан: 27 раз
Статус: √ проверено
Размер: 20.24 GB
Как cкачать? Как скачать Тебя никогда здесь не было через торрент | qTorrent

% Раздел Тема Автор DL S | L
Фильмы [HD 720p, 1080p] (Хороший звук DUB, MVO) [ 8.16 GB ] Тебя никогда здесь не было / You Were Never Really Here [2017 BDRip 1080p] 2xMVO [ HDrezka Studio] sokol_ok Скачать
2 | 0
Фильмы [HD 720p, 1080p] (Хороший звук DUB, MVO) [ 8.29 GB ] Тебя никогда здесь не было / You Were Never Really Here [2017 BDRip 1080p] 2xMVO [HDrezka Studio ] bober100 Скачать
2 | 0
Фильмы 2017 [DVDrip, WEB-DLRip, HDrip] (DUB, MVO) [ 1.71 GB ] Тебя никогда здесь не было / You Were Never Really Here [2017 BDRip-AVC] 2xMVO [HDrezka Studio ] bober100 Скачать
1 | 0
Фильмы 2017 [DVDrip, WEB-DLRip, HDrip] (DUB, MVO) [ 745 MB ] Тебя никогда здесь не было / You Were Never Really Here [2017 HDRip] MVO [ BD RUS] bober100 Скачать
1 | 0
Фильмы [HD 720p, 1080p] (Хороший звук DUB, MVO) [ 4.95 GB ] Тебя никогда здесь не было / You Were Never Really Here [2017 BDRip 720p] 2xMVO [HDrezka Studio ] bober100 Скачать
1 | 0
Фильмы 2017 [DVDrip, WEB-DLRip, HDrip] (DUB, MVO) [ 1.46 GB ] Тебя никогда здесь не было / You Were Never Really Here [2017 BDRip] MVO [ BD RUS] bober100 Скачать
1 | 0
Фильмы (Blu-ray, BD-Remux, HDDVD) [ 20.1 GB ] Тебя никогда здесь не было / You Were Never Really Here [2017 Blu-ray 1080p] [Rus Transfer] MVO [] bober100 Скачать
1 | 0

28-11-2019 20:33  

Отключить всю рекламу на сайте

04-07-2018 06:13 Тебя никогда здесь не было Скачать торрент  

хорошего 4К не видать?pb.wtf



04-07-2018 06:28 Тебя никогда здесь не было Скачать торрент  

ВВП76 писал(а):

хорошего 4К не видать?

Пока нет и не скоро.pb.wtf



    Дорогой пользователь! Огромная просьба, поблагодарите релизера, оцените раздачу и оставьте свои комментарий, если Вы скачали Тебя никогда здесь не было через торрент бесплатно! Внесите свою лепту в развитие PiratBit!
    Комментировать посты могут только пользователи прошедшие не сложную регистрацию
    Показать сообщения:    

    Тебя никогда здесь не было через торрент
    Скачать бесплатно Тебя никогда здесь не было
    Тебя никогда здесь не было скачать торрент
    Тебя никогда здесь не было смотреть онлайн
    Cкачать фильм Тебя никогда здесь не было бесплатно
    Тебя никогда здесь не было скачать торрент в хорошем качестве
    Тебя никогда здесь не было смотреть онлайн бесплатно в хорошем качестве


    Вы не можете начинать темы
    Вы не можете отвечать на сообщения
    Вы не можете редактировать свои сообщения
    Вы не можете удалять свои сообщения
    Вы не можете голосовать в опросах
    Вы не можете прикреплять файлы к сообщениям
    Вы можете скачивать файлы