Ссылка на приватное зеркало всего за 1$. Внимание количество ограничено!!!

iTunes

1+1

iTunes

мы

WEB-DL

1

iTunes

Чернобыль

iTunes

Ральф против интернета

Лицензия

ПШазам

Лицензия

Оно 2

Лицензия

30
pack

Вам бонус

ВАЖНО

!!Акция!!

Alien_RageХит недели

RePack

Resident Evil 21

ИГРА 18+

pack

RePack

jed

!!Акция!!

Alien_Rage

RePack

fifa19

RePack

Assassins Creed: Odyssey

RePack

NEED FOR SPEED™ PAYBACK

3 сезон

9 сезон

Бесстыжие 9 сезон

Все сериалы

все сериалы на PB.wtf

RePack

FAR CRY 5
Ребята, катастрофически не хватает 1900р. для оплаты серверов за Октябрь (всвязи с блокировками трафик упал в 3 раза), 1-2р., выручайте.
  

Страна призраков / Ghostland (Паскаль Ложье) [2018, ужасы, BDRip-AVC] DUB [Лицензия] pb.wtf

Страна призраков через торрент pb.wtf

Раздают: 1 [ 0 KB/s ]
Размер: 1.5 GB | Добавлен: 1 год 5 мес. назад | Торрент скачан:288 раз
Скачать  

04-07-2018 14:42 Страна призраков Скачать торрент  

Страна призраков / Ghostland
Год выпуска: 2018
Страна: Франция, Канада
Жанр: ужасы
Продолжительность: 01:31:14
Перевод: Дублированный | Лицензия
Субтитры: Русские, английские

Режиссер: Паскаль Ложье

rating

В ролях:

Кристал Рид, Анастасия Филлипс, Эмилия Джонс, Тэйлор Хиксон, Милен Фармер, Роб Арчер, Анджела Эшер, Эрик Атхавале, Тони Брэга, Паоло Брайант

Описание:

Бэт возвращается в родные места, где много лет назад с её семьёй произошла страшная трагедия. В старом особняке её ждут мать и сестра, помешанная на призраках, чья одержимость злыми духами - не что иное, как отголосок ужасного инцидента, превратившего жизнь в параноидальный кошмар. В доме начинают происходить странные события, объяснить которые Бэт не в силах...

Качество: BDRip-AVC
Формат: MKV

Видео: 1024x428 (2.40:1), 24,000 fps, x264 ~1 459 kbps avg, 0.139 bit/pixel
Аудио#1: 48 kHz, AC3 Dolby Digital, 3/2 (L,C,R,l,r) + LFE ch, ~448.00 kbps avg | RUS (Лицензия)
Аудио#2: 48 kHz, AC3 Dolby Digital, 3/2 (L,C,R,l,r) + LFE ch, ~448.00 kbps avg | ENG
скриншот  скриншот  скриншот  скриншот  скриншот  

Общее
Уникальный идентификатор : 172235036192665121895467512327070155816 (0x819342E8FCCDA08588C0396CB05E0428)
Полное имя : F:\OlLanDGroup\Incident.in.a.Ghost.Land.2018.BDRip(AVC).OlLanDGroup.mkv
Формат : Matroska
Версия формата : Version 4 / Version 2
Размер файла : 1,50 Гбайт
Продолжительность : 1 ч. 31 м.
Общий поток : 2355 Кбит/сек
Название фильма : Incident.in.a.Ghost.Land.2018 #TorpedoUK#
Дата кодирования : UTC 2018-07-04 10:28:52
Программа кодирования : mkvmerge v8.3.0 ('Over the Horizon') 64bit
Библиотека кодирования : libebml v1.3.1 + libmatroska v1.4.2

Видео
Идентификатор : 1
Формат : AVC
Формат/Информация : Advanced Video Codec
Профиль формата : High@L4.1
Параметр CABAC формата : Да
Параметр ReFrames формата : 10 кадров
Идентификатор кодека : V_MPEG4/ISO/AVC
Продолжительность : 1 ч. 31 м.
Битрейт : 1459 Кбит/сек
Ширина : 1024 пикселя
Высота : 428 пикселей
Соотношение сторон : 2,40:1
Режим частоты кадров : Постоянный
Частота кадров : 24,000 кадра/сек
Цветовое пространство : YUV
Субдискретизация насыщенности : 4:2:0
Битовая глубина : 8 бит
Тип развёртки : Прогрессивная
Бит/(Пиксели*Кадры) : 0.139
Размер потока : 951 Мбайт (62%)
Библиотека кодирования : x264 core 146 r2538 121396c
Настройки программы : cabac=1 / ref=10 / deblock=1:-3:-3 / analyse=0x3:0x113 / me=umh / subme=11 / psy=1 / psy_rd=1.00:0.03 / mixed_ref=1 / me_range=48 / chroma_me=1 / trellis=2 / 8x8dct=1 / cqm=0 / deadzone=21,11 / fast_pskip=1 / chroma_qp_offset=-3 / threads=6 / lookahead_threads=1 / sliced_threads=0 / nr=0 / decimate=1 / interlaced=0 / bluray_compat=0 / constrained_intra=0 / bframes=10 / b_pyramid=2 / b_adapt=2 / b_bias=0 / direct=3 / weightb=1 / open_gop=0 / weightp=2 / keyint=240 / keyint_min=23 / scenecut=40 / intra_refresh=0 / rc_lookahead=40 / rc=2pass / mbtree=1 / bitrate=1459 / ratetol=1.0 / qcomp=0.60 / qpmin=0 / qpmax=69 / qpstep=4 / cplxblur=20.0 / qblur=0.5 / vbv_maxrate=50000 / vbv_bufsize=62500 / nal_hrd=none / filler=0 / ip_ratio=1.40 / aq=1:1.00
Язык : English
Default : Да
Forced : Нет

Аудио #1
Идентификатор : 2
Формат : AC-3
Формат/Информация : Audio Coding 3
Расширение режима : CM (complete main)
Параметр Endianness формата : Big
Идентификатор кодека : A_AC3
Продолжительность : 1 ч. 31 м.
Вид битрейта : Постоянный
Битрейт : 448 Кбит/сек
Каналы : 6 каналов
Расположение каналов : Front: L C R, Side: L R, LFE
Частота : 48,0 КГц
Частота кадров : 31,250 кадров/сек (1536 spf)
Битовая глубина : 16 бит
Метод сжатия : С потерями
Размер потока : 292 Мбайт (19%)
Заголовок : Dub | DD 5.1 @ 448 kbps - Blu-ray RUS
Язык : Russian
Default : Да
Forced : Нет

Аудио #2
Идентификатор : 3
Формат : AC-3
Формат/Информация : Audio Coding 3
Расширение режима : CM (complete main)
Параметр Endianness формата : Big
Идентификатор кодека : A_AC3
Продолжительность : 1 ч. 31 м.
Вид битрейта : Постоянный
Битрейт : 448 Кбит/сек
Каналы : 6 каналов
Расположение каналов : Front: L C R, Side: L R, LFE
Частота : 48,0 КГц
Частота кадров : 31,250 кадров/сек (1536 spf)
Битовая глубина : 16 бит
Метод сжатия : С потерями
Размер потока : 292 Мбайт (19%)
Заголовок : Original | DD 5.1 @ 448 kbps
Язык : English
Default : Нет
Forced : Нет

Текст #1
Идентификатор : 4
Формат : UTF-8
Идентификатор кодека : S_TEXT/UTF8
Идентификатор кодека/Информация : UTF-8 Plain Text
Продолжительность : 1 ч. 24 м.
Битрейт : 43 бит/сек
Count of elements : 708
Размер потока : 26,8 Кбайт (0%)
Заголовок : Blu-ray RUS
Язык : Russian
Default : Нет
Forced : Нет

Текст #2
Идентификатор : 5
Формат : UTF-8
Идентификатор кодека : S_TEXT/UTF8
Идентификатор кодека/Информация : UTF-8 Plain Text
Продолжительность : 1 ч. 24 м.
Битрейт : 28 бит/сек
Count of elements : 779
Размер потока : 17,4 Кбайт (0%)
Заголовок : Full
Язык : English
Default : Нет
Forced : Нет

Текст #3
Идентификатор : 6
Формат : UTF-8
Идентификатор кодека : S_TEXT/UTF8
Идентификатор кодека/Информация : UTF-8 Plain Text
Продолжительность : 1 ч. 24 м.
Битрейт : 36 бит/сек
Count of elements : 837
Размер потока : 22,5 Кбайт (0%)
Заголовок : SDH
Язык : English
Default : Нет
Forced : Нет

Меню
00:00:00.000 : en:(01)00:00:00:000
00:01:29.791 : en:(02)00:01:29:791
00:10:57.750 : en:(03)00:10:57:750
00:19:48.833 : en:(04)00:19:48:833
00:29:28.916 : en:(05)00:29:28:916
00:41:00.708 : en:(06)00:41:00:708
00:51:49.875 : en:(07)00:51:49:875
01:03:50.333 : en:(08)01:03:50:333
01:16:10.833 : en:(09)01:16:10:833

pb.wtf



Скачать Страна призраков через торрент http://i105.fastpic.ru/big/2018/0704/eb/c8fac1cd89aa382fb6eccaa1a3a5a4eb.jpg Скачать фильм Страна призраков через торрент бесплантно в хорошем качестве Описание: Бэт возвращается в родные места, где много лет назад с её семьёй произошла страшная трагедия. В старом особняке её ждут мать и ... 9.5 10 8
Торрент: Зарегистрирован [2018-07-04 14:42] · скачан: 288 раз
Статус: √ проверено
Размер: 1.5 GB
Как cкачать? Как скачать Страна призраков через торрент | qTorrent

% Раздел Тема Автор DL S | L
Фильмы 2018 [DVDrip, WEB-DLRip, HDrip] (DUB, MVO) [ 1.46 GB ] Страна призраков / Ghostland [2018 BDRip] - [] Twi7ter Скачать
1 | 0
Фильмы (WEB-DL 720p, 1080p) [ 2.83 GB ] Страна призраков / Ghostland [2018 WEB-DL 720p] bober100 Скачать
2 | 0
Фильмы (WEB-DL 720p, 1080p) [ 3.13 GB ] Страна призраков / Ghostland [2018 WEB-DL 1080p] bober100 Скачать
1 | 0

28-11-2019 20:33  

Отключить всю рекламу на сайте

    Дорогой пользователь! Огромная просьба, поблагодарите релизера, оцените раздачу и оставьте свои комментарий, если Вы скачали Страна призраков через торрент бесплатно! Внесите свою лепту в развитие PiratBit!
    Комментировать посты могут только пользователи прошедшие не сложную регистрацию
    Показать сообщения:    

    Страна призраков через торрент
    Скачать бесплатно Страна призраков
    Страна призраков скачать торрент
    Страна призраков смотреть онлайн
    Cкачать фильм Страна призраков бесплатно
    Страна призраков скачать торрент в хорошем качестве
    Страна призраков смотреть онлайн бесплатно в хорошем качестве


    Вы не можете начинать темы
    Вы не можете отвечать на сообщения
    Вы не можете редактировать свои сообщения
    Вы не можете удалять свои сообщения
    Вы не можете голосовать в опросах
    Вы не можете прикреплять файлы к сообщениям
    Вы можете скачивать файлы