Ссылка на приватное зеркало нашего сайта всего за 1$. Внимание количество ограничено!!!

2 сезон

iTunes

iTunes

1

iTunes

iTunes

iTunes

WEBRip

iTunes

30
pack

Вам бонус

ВАЖНО

!!Акция!!

Alien_RageХит недели

RePack

Horizon Zero Dawn

ИГРА 18+

pack

RePack

jed

!!Акция!!

Alien_Rage

RePack

fifa19

RePack

Assassins Creed: Odyssey

RePack

NEED FOR SPEED™ PAYBACK

4 сезон

9 сезон

Бесстыжие 9 сезон

Все сериалы

все сериалы на PB.wtf

RePack

FAR CRY 5
  

Ходить как пантера / Walk Like a Panther (Дэн Кадан) [2018, комедия, WEB-DL 720p] MVO [@MUZOBOZ@] pb.wtf

Ходить как пантера через торрент pb.wtf

Размер: 4.15 GB | Добавлен: 2 года 2 мес. назад | Торрент скачан:11 раз
Скачать  

04-07-2018 17:11 Ходить как пантера Скачать торрент  

Ходить как пантера / Walk Like a PantherГод выпуска: 2018
Страна: Великобритания
Жанр: комедия
Продолжительность: 01:50:28
Перевод: Любительский (многоголосый) | @MUZOBOZ@
Субтитры: отсутствуют

Режиссер: Дэн Кадан

rating

В ролях:

Стивен Грэм, Джейсон Флеминг, Джулиан Сэндс, Джилл Халфпенни, Робби Ги, Стивен Томпкинсон, Сью Джонстон, Энтони Г Хамер, Эндрю Эбботт, Джудит Дэвис

Описание:

Кучке престарелых рестлеров, широко известных в 1980-ых годах, снова пришлось влезть в свои старые трико, чтобы предотвратить закрытие любимого паба.

Качество: WEB-DL 720p
Формат: MKV

Видео: h.264,4883 kb/s, 1280x532
Аудио#1: Русский, (AC3, 2 ch, 384 Кбит/с)
скриншот  скриншот  скриншот  

Общее
Уникальный идентификатор : 235806554619024168619177555189646688280 (0xB166B0C2241763A6A5EE67677EB70018)
Полное имя : D:\Walk.Like.a.Panther.2018.P.WEB-DL.72Op_KOSHARA.mkv
Формат : Matroska
Версия формата : Version 2
Размер файла : 4,15 Гбайт
Продолжительность : 1 ч. 50 м.
Режим общего битрейта : Переменный
Общий поток : 5374 Кбит/сек
Дата кодирования : UTC 2018-07-04 13:16:40
Программа кодирования : mkvmerge v8.3.0 ('Over the Horizon') 64bit
Библиотека кодирования : libebml v1.3.1 + libmatroska v1.4.2

Видео
Идентификатор : 1
Формат : AVC
Формат/Информация : Advanced Video Codec
Профиль формата : High@L4.1
Параметр CABAC формата : Да
Параметр RefFrames формата : 4 кадра
Идентификатор кодека : V_MPEG4/ISO/AVC
Продолжительность : 1 ч. 50 м.
Вид битрейта : Переменный
Битрейт : 4883 Кбит/сек
Максимальный битрейт : 5500 Кбит/сек
Ширина : 1280 пикселей
Высота : 532 пикселя
Соотношение сторон : 2,40:1
Режим частоты кадров : Постоянный
Частота кадров : 23,976 (24000/1001) кадра/сек
Стандарт вещания : Component
Цветовое пространство : YUV
Субдискретизация насыщенности : 4:2:0
Битовая глубина : 8 бит
Тип развёртки : Прогрессивная
Бит/(Пиксели*Кадры) : 0.299
Размер потока : 3,77 Гбайт (91%)
Default : Да
Forced : Нет
Цветовой диапазон : Limited
Основные цвета : BT.709
Характеристики трансфера : BT.709
Коэффициенты матрицы : BT.709

Аудио
Идентификатор : 2
Формат : AC-3
Формат/Информация : Audio Coding 3
Расширение режима : CM (complete main)
Параметр Endianness формата : Big
Идентификатор кодека : A_AC3
Продолжительность : 1 ч. 50 м.
Вид битрейта : Постоянный
Битрейт : 384 Кбит/сек
Каналы : 2 канала
Расположение каналов : Front: L R
Частота : 48,0 КГц
Частота кадров : 31,250 кадров/сек (1536 spf)
Метод сжатия : С потерями
Размер потока : 303 Мбайт (7%)
Default : Да
Forced : Нет

pb.wtf



Скачать Ходить как пантера через торрент https://img11.lostpic.net/2018/07/04/cc1287476d8bb0f6914e6d9a92c4dc8d.jpg Скачать фильм Ходить как пантера через торрент бесплантно в хорошем качестве Описание: Кучке престарелых рестлеров, широко известных в 1980-ых годах, снова пришлось влезть в свои старые трико, чтобы предотвратить ... 10 10 2
Торрент: Зарегистрирован [2018-07-04 17:11] · скачан: 11 раз
Статус: T временная
Размер: 4.15 GB
Как cкачать? Как скачать Ходить как пантера через торрент | qTorrent

% Раздел Тема Автор DL S | L
T Фильмы (мультфильмы) cо спонсором показа (Новинки AVI/MKV) [ 1.37 GB ] Ходить как пантера / Walk Like a Panther [2018 WEB-DLRip] MVO [@MUZOBOZ@] bober100 Скачать
1 | 0

28-11-2019 20:33  

Отключить всю рекламу на сайте

    Дорогой пользователь! Огромная просьба, поблагодарите релизера, оцените раздачу и оставьте свои комментарий, если Вы скачали Ходить как пантера через торрент бесплатно! Внесите свою лепту в развитие PiratBit!
    Комментировать посты могут только пользователи прошедшие не сложную регистрацию
    Показать сообщения:    

    Ходить как пантера через торрент
    Скачать бесплатно Ходить как пантера
    Ходить как пантера скачать торрент
    Ходить как пантера смотреть онлайн
    Cкачать фильм Ходить как пантера бесплатно
    Ходить как пантера скачать торрент в хорошем качестве
    Ходить как пантера смотреть онлайн бесплатно в хорошем качестве


    Вы не можете начинать темы
    Вы не можете отвечать на сообщения
    Вы не можете редактировать свои сообщения
    Вы не можете удалять свои сообщения
    Вы не можете голосовать в опросах
    Вы не можете прикреплять файлы к сообщениям
    Вы можете скачивать файлы