Ссылка на приватное зеркало всего за 1$. Внимание количество ограничено!!!

iTunes

1+1

iTunes

мы

WEB-DL

1

iTunes

Чернобыль

iTunes

Ральф против интернета

Лицензия

ПШазам

Лицензия

Оно 2

Лицензия

30
pack

Вам бонус

ВАЖНО

!!Акция!!

Alien_RageХит недели

RePack

Resident Evil 21

ИГРА 18+

pack

RePack

jed

!!Акция!!

Alien_Rage

RePack

fifa19

RePack

Assassins Creed: Odyssey

RePack

NEED FOR SPEED™ PAYBACK

3 сезон

9 сезон

Бесстыжие 9 сезон

Все сериалы

все сериалы на PB.wtf

RePack

FAR CRY 5
Ребята, катастрофически не хватает 1900р. для оплаты серверов за Октябрь (всвязи с блокировками трафик упал в 3 раза), 1-2р., выручайте.
  

Жажда смерти / Death Wish (Элай Рот) [2018, боевик, триллер, криминал, BDRip-AVC] DUB [iTunes] - ExKinoRay pb.wtf

Жажда смерти через торрент pb.wtf

Раздают: 3 [ 0 KB/s ]
Размер: 1.75 GB | Добавлен: 1 год 5 мес. назад | Торрент скачан:1376 раз
Скачать  

04-07-2018 20:24 Жажда смерти Скачать торрент  

Информация о фильме
Название: Жажда смерти
Оригинальное название: Death Wish
Год выпуска: 2018
Жанр: Боевик, триллер, криминал
Режиссер: Элай Рот
В ролях: Брюс Уиллис, Винсент Д'Онофрио, Элизабет Шу, Камила Морроне, Дин Норрис, Бо Напп, Кимберли Элиз, Лен Кариу, Джек Кеси, Ронни Джин Блевинс

Описание: Пол Керси - хирург, привыкший вытаскивать людей с того света после криминальных разборок. Но после того, как его жена и дочь становятся жертвами уличной банды, а полиция бездействует, он берет карающий меч правосудия в свои руки. Видео изобретательных убийств преступников покоряют интернет-топы, а среди жителей города расходятся слухи о неуловимом народном мстителе, которому теперь принадлежит весь город. Он мстит бодро, весело и со вкусом.

rating

Страна: США
Студия: Paramount Pictures, Metro-Goldwyn-Mayer
Продолжительность: 01:46:43
Перевод: Дублированный | iTunes
Субтитры: Английские

БЕЗ КАКОЙ-ЛИБО РЕКЛАМЫ!

Формат: MKV
Качество: BDRip-AVC (исх.Death.Wish.2018.remuX.108Op)
Видео: MPEG-4 AVC, 1024x426 (2.40:1), 23.976 fps, 1520 Kbps, 0.145 bit/pixel
Аудио #01: 48 kHz, AC3, 5.1, 384 Kbps | RUS |
Аудио #02: 48 kHz, AC3, 5.1, 448 Kbps | Оригинал | ENG |
General
Unique ID : 207579796821894462287281317517563085596 (0x9C2A6A26D2FFB04EB3B11264634D431C)
Complete name : D:\Death.Wish.2018.Dub.BDRip.AVC.ExKinoRay.mkv
Format : Matroska
Format version : Version 2
File size : 1.75 GiB
Duration : 1 h 46 min
Overall bit rate : 2 354 kb/s
Movie name : Death Wish 2018 from ExKinoRay
Encoded date : UTC 2018-07-04 20:07:20
Writing application : mkvmerge v5.6.0 ('Kenya Kane') built on May 27 2012 16:44:04
Writing library : libebml v1.2.3 + libmatroska v1.3.0

Video
ID : 1
Format : AVC
Format/Info : Advanced Video Codec
Format profile : High@L4.1
Format settings, CABAC : Yes
Format settings, ReFrames : 12 frames
Codec ID : V_MPEG4/ISO/AVC
Duration : 1 h 46 min
Bit rate : 1 520 kb/s
Width : 1 024 pixels
Height : 426 pixels
Display aspect ratio : 2.40:1
Frame rate mode : Constant
Frame rate : 23.976 (23976/1000) FPS
Color space : YUV
Chroma subsampling : 4:2:0
Bit depth : 8 bits
Scan type : Progressive
Bits/(Pixel*Frame) : 0.145
Stream size : 1.10 GiB (63%)
Title : Enigma
Writing library : x264 core 152 r2851 ba24899
Encoding settings : cabac=1 / ref=12 / deblock=1:-3:-3 / analyse=0x3:0x113 / me=umh / subme=10 / psy=1 / psy_rd=1.05:0.10 / mixed_ref=1 / me_range=32 / chroma_me=1 / trellis=2 / 8x8dct=1 / cqm=0 / deadzone=21,11 / fast_pskip=0 / chroma_qp_offset=-3 / threads=12 / lookahead_threads=3 / sliced_threads=0 / nr=0 / decimate=0 / interlaced=0 / bluray_compat=0 / constrained_intra=0 / bframes=14 / b_pyramid=2 / b_adapt=2 / b_bias=0 / direct=3 / weightb=1 / open_gop=0 / weightp=2 / keyint=240 / keyint_min=23 / scenecut=40 / intra_refresh=0 / rc_lookahead=40 / rc=2pass / mbtree=0 / bitrate=1520 / ratetol=1.0 / qcomp=0.65 / qpmin=0 / qpmax=51 / qpstep=4 / cplxblur=20.0 / qblur=0.5 / vbv_maxrate=50000 / vbv_bufsize=62500 / nal_hrd=none / filler=0 / ip_ratio=1.40 / pb_ratio=1.30 / aq=2:0.90
Language : English
Default : Yes
Forced : No
Color range : Limited
Color primaries : BT.709
Transfer characteristics : BT.709
Matrix coefficients : BT.709

Audio #1
ID : 2
Format : AC-3
Format/Info : Audio Coding 3
Mode extension : CM (complete main)
Format settings, Endianness : Big
Codec ID : A_AC3
Duration : 1 h 46 min
Bit rate mode : Constant
Bit rate : 384 kb/s
Channel(s) : 6 channels
Channel positions : Front: L C R, Side: L R, LFE
Sampling rate : 48.0 kHz
Frame rate : 31.250 FPS (1536 spf)
Compression mode : Lossy
Stream size : 293 MiB (16%)
Title : iTunes
Language : Russian
Default : Yes
Forced : No

Audio #2
ID : 3
Format : AC-3
Format/Info : Audio Coding 3
Mode extension : CM (complete main)
Format settings, Endianness : Big
Codec ID : A_AC3
Duration : 1 h 46 min
Bit rate mode : Constant
Bit rate : 448 kb/s
Channel(s) : 6 channels
Channel positions : Front: L C R, Side: L R, LFE
Sampling rate : 48.0 kHz
Frame rate : 31.250 FPS (1536 spf)
Compression mode : Lossy
Stream size : 342 MiB (19%)
Language : English
Default : No
Forced : No

Text
ID : 4
Format : UTF-8
Codec ID : S_TEXT/UTF8
Codec ID/Info : UTF-8 Plain Text
Language : English
Default : No
Forced : No

Menu
00:00:00.000 : en:00:00:00.000
00:05:39.089 : en:00:05:39.089
00:08:51.239 : en:00:08:51.239
00:11:55.798 : en:00:11:55.798
00:19:12.860 : en:00:19:12.860
00:24:34.139 : en:00:24:34.139
00:28:37.174 : en:00:28:37.174
00:32:45.964 : en:00:32:45.964
00:36:15.840 : en:00:36:15.840
00:43:49.168 : en:00:43:49.168
00:47:10.411 : en:00:47:10.411
00:53:49.518 : en:00:53:49.518
00:56:56.330 : en:00:56:56.330
01:00:27.082 : en:01:00:27.082
01:07:55.154 : en:01:07:55.154
01:11:16.564 : en:01:11:16.564
01:15:52.256 : en:01:15:52.256
01:19:23.926 : en:01:19:23.926
01:22:41.415 : en:01:22:41.415
01:25:43.889 : en:01:25:43.889
01:28:20.837 : en:01:28:20.837
01:31:24.813 : en:01:31:24.813
01:37:14.537 : en:01:37:14.537
01:40:07.585 : en:01:40:07.585
Релиз от:

Автор релиза: pb.wtf



Скачать Жажда смерти через торрент https://c.radikal.ru/c17/1805/db/50fd29310bce.jpg Скачать фильм Жажда смерти через торрент бесплантно в хорошем качестве Описание: Пол Керси - хирург, привыкший вытаскивать людей с того света после криминальных разборок. Но после того, как его жена и дочь ... 10 10 21
Info! Золотая раздача, скачанное не засчитывается.
Торрент: Зарегистрирован [2018-07-05 04:16] · скачан: 1 376 раз
Статус: √ проверено
Размер: 1.75 GB
Как cкачать? Как скачать Жажда смерти через торрент | qTorrent

% Раздел Тема Автор DL S | L
Фильмы с авторской озвучкой [ 1.47 GB ] Жажда смерти / Death Wish [2018 BDRip-AVC] AVO [Чадов] - ExKinoRay Enigma2010 Скачать
3 | 0

28-11-2019 20:33  

Отключить всю рекламу на сайте

05-07-2018 06:21 Жажда смерти Скачать торрент  

Ремейк фильма 80 годов.pb.wtf



08-07-2018 20:37 Жажда смерти Скачать торрент  

интересно, если в России склифасовский бы так закончился, Брагина тоже бы отмазали?pb.wtf



    Дорогой пользователь! Огромная просьба, поблагодарите релизера, оцените раздачу и оставьте свои комментарий, если Вы скачали Жажда смерти через торрент бесплатно! Внесите свою лепту в развитие PiratBit!
    Комментировать посты могут только пользователи прошедшие не сложную регистрацию
    Показать сообщения:    

    Жажда смерти через торрент
    Скачать бесплатно Жажда смерти
    Жажда смерти скачать торрент
    Жажда смерти смотреть онлайн
    Cкачать фильм Жажда смерти бесплатно
    Жажда смерти скачать торрент в хорошем качестве
    Жажда смерти смотреть онлайн бесплатно в хорошем качестве


    Вы не можете начинать темы
    Вы не можете отвечать на сообщения
    Вы не можете редактировать свои сообщения
    Вы не можете удалять свои сообщения
    Вы не можете голосовать в опросах
    Вы не можете прикреплять файлы к сообщениям
    Вы можете скачивать файлы