новый адрес
Ссылка на приватное зеркало всего за 1$. Внимание количество ограничено!!!

iTunes

1+1

iTunes

мы

iTunes

1

iTunes

Чернобыль

iTunes

Ральф против интернета

Лицензия

ПШазам

Лицензия

Оно 2

Лицензия

30
pack

Вам бонус

ВАЖНО

!!Акция!!

Alien_RageХит недели

RePack

Resident Evil 21

ИГРА 18+

pack

RePack

jed

!!Акция!!

Alien_Rage

RePack

fifa19

RePack

Assassins Creed: Odyssey

RePack

NEED FOR SPEED™ PAYBACK

3 сезон

9 сезон

Бесстыжие 9 сезон

Все сериалы

все сериалы на PB.wtf

RePack

FAR CRY 5
Ребята, катастрофически не хватает 1900р. для оплаты серверов за Октябрь (всвязи с блокировками трафик упал в 3 раза), 1-2р., выручайте.
  

Привидение / Every Day (Майкл Сакси) [2018, фэнтези, драма, мелодрама, BDRip-AVC] DUB [iTunes] pb.wtf

Привидение через торрент pb.wtf

Раздают: 3 [ 0 KB/s ]
Размер: 1.57 GB | Добавлен: 1 год 5 мес. назад | Торрент скачан:557 раз
Скачать  

05-07-2018 05:31 Привидение Скачать торрент  

Привидение / Every Day
Год выпуска: 2018
Страна: США
Жанр: фэнтези, драма, мелодрама
Продолжительность: 01:37:39
Перевод: Дублированный | iTunes
Субтитры: Английские (полные, SDH)

Режиссер: Майкл Сакси

rating

В ролях:

Энгаури Райс, Джастис Смит, Дженни Росс, Лукас Джейд Зуманн, Кэти Дуглас, Джейкоб Баталон, Иэн Александр, Шон Джонс, Колин Форд

Описание:

Каждый день он просыпается в новом теле. Его утро - это новый дом, новая семья, новые друзья. Он - бестелесный дух, который видит мир глазами других и проживает короткие моменты чужих жизней. Но однажды он встречает Рианнон, и каждый день превращается в попытку вернуться к этой девушке, ставшей для него той самой единственной. Теперь им нужно найти способ остаться вместе.

Качество: BDRip-AVC
Формат: MKV

Видео: 1024x428 (2.40:1), 23,976 fps, x264 ~1 472 kbps avg, 0.140 bit/pixel
Аудио#1: 48 kHz, AC3 Dolby Digital, 3/2 (L,C,R,l,r) + LFE ch, ~384.00 kbps avg | RUS (iTunes)
Аудио#2: 48 kHz, AC3 Dolby Digital, 3/2 (L,C,R,l,r) + LFE ch, ~448.00 kbps avg | ENG
скриншот  скриншот  скриншот  скриншот  скриншот  

Общее
Уникальный идентификатор : 205644025637587834547209541449354241167 (0x9AB599437BF26EBA8D788E9A2966E48F)
Полное имя : F:\OlLanDGroup\Every.Day.2018.BDRip(AVC).OlLanDGroup.mkv
Формат : Matroska
Версия формата : Version 4 / Version 2
Размер файла : 1,57 Гбайт
Продолжительность : 1 ч. 37 м.
Общий поток : 2302 Кбит/сек
Название фильма : Every.Day.2018 #TorpedoUK#
Дата кодирования : UTC 2018-07-05 02:29:31
Программа кодирования : mkvmerge v8.3.0 ('Over the Horizon') 64bit
Библиотека кодирования : libebml v1.3.1 + libmatroska v1.4.2

Видео
Идентификатор : 1
Формат : AVC
Формат/Информация : Advanced Video Codec
Профиль формата : High@L4.1
Параметр CABAC формата : Да
Параметр ReFrames формата : 10 кадров
Идентификатор кодека : V_MPEG4/ISO/AVC
Продолжительность : 1 ч. 37 м.
Битрейт : 1472 Кбит/сек
Ширина : 1024 пикселя
Высота : 428 пикселей
Соотношение сторон : 2,40:1
Режим частоты кадров : Постоянный
Частота кадров : 23,976 (24000/1001) кадра/сек
Цветовое пространство : YUV
Субдискретизация насыщенности : 4:2:0
Битовая глубина : 8 бит
Тип развёртки : Прогрессивная
Бит/(Пиксели*Кадры) : 0.140
Размер потока : 1,00 Гбайт (64%)
Библиотека кодирования : x264 core 146 r2538 121396c
Настройки программы : cabac=1 / ref=10 / deblock=1:-3:-3 / analyse=0x3:0x133 / me=umh / subme=11 / psy=1 / psy_rd=0.99:0.05 / mixed_ref=1 / me_range=48 / chroma_me=1 / trellis=2 / 8x8dct=1 / cqm=0 / deadzone=21,11 / fast_pskip=1 / chroma_qp_offset=-3 / threads=6 / lookahead_threads=1 / sliced_threads=0 / nr=0 / decimate=1 / interlaced=0 / bluray_compat=0 / constrained_intra=0 / bframes=10 / b_pyramid=2 / b_adapt=2 / b_bias=0 / direct=3 / weightb=1 / open_gop=0 / weightp=2 / keyint=240 / keyint_min=23 / scenecut=40 / intra_refresh=0 / rc_lookahead=40 / rc=2pass / mbtree=0 / bitrate=1472 / ratetol=1.0 / qcomp=0.60 / qpmin=0 / qpmax=69 / qpstep=4 / cplxblur=20.0 / qblur=0.5 / vbv_maxrate=50000 / vbv_bufsize=62500 / nal_hrd=none / filler=0 / ip_ratio=1.40 / pb_ratio=1.30 / aq=1:1.00
Язык : English
Default : Да
Forced : Нет

Аудио #1
Идентификатор : 2
Формат : AC-3
Формат/Информация : Audio Coding 3
Расширение режима : CM (complete main)
Параметр Endianness формата : Big
Идентификатор кодека : A_AC3
Продолжительность : 1 ч. 37 м.
Вид битрейта : Постоянный
Битрейт : 384 Кбит/сек
Каналы : 6 каналов
Расположение каналов : Front: L C R, Side: L R, LFE
Частота : 48,0 КГц
Частота кадров : 31,250 кадров/сек (1536 spf)
Битовая глубина : 16 бит
Метод сжатия : С потерями
Размер потока : 268 Мбайт (17%)
Заголовок : iTunes
Язык : Russian
Default : Да
Forced : Нет

Аудио #2
Идентификатор : 3
Формат : AC-3
Формат/Информация : Audio Coding 3
Расширение режима : CM (complete main)
Параметр Endianness формата : Big
Идентификатор кодека : A_AC3
Продолжительность : 1 ч. 37 м.
Вид битрейта : Постоянный
Битрейт : 448 Кбит/сек
Каналы : 6 каналов
Расположение каналов : Front: L C R, Side: L R, LFE
Частота : 48,0 КГц
Частота кадров : 31,250 кадров/сек (1536 spf)
Битовая глубина : 16 бит
Метод сжатия : С потерями
Размер потока : 313 Мбайт (19%)
Заголовок : Original
Язык : English
Default : Нет
Forced : Нет

Текст #1
Идентификатор : 4
Формат : UTF-8
Идентификатор кодека : S_TEXT/UTF8
Идентификатор кодека/Информация : UTF-8 Plain Text
Продолжительность : 1 ч. 29 м.
Битрейт : 57 бит/сек
Count of elements : 1195
Размер потока : 37,9 Кбайт (0%)
Заголовок : Full
Язык : English
Default : Нет
Forced : Нет

Текст #2
Идентификатор : 5
Формат : UTF-8
Идентификатор кодека : S_TEXT/UTF8
Идентификатор кодека/Информация : UTF-8 Plain Text
Продолжительность : 1 ч. 29 м.
Битрейт : 59 бит/сек
Count of elements : 1226
Размер потока : 39,3 Кбайт (0%)
Заголовок : SDH
Язык : English
Default : Нет
Forced : Нет

Меню
00:00:00.000 : en:00:00:00.000
00:06:17.794 : en:00:06:17.794
00:13:16.421 : en:00:13:16.421
00:18:18.180 : en:00:18:18.180
00:23:56.185 : en:00:23:56.185
00:29:25.347 : en:00:29:25.347
00:37:50.143 : en:00:37:50.143
00:41:46.212 : en:00:41:46.212
00:49:05.317 : en:00:49:05.317
00:55:00.756 : en:00:55:00.756
01:00:40.846 : en:01:00:40.846
01:06:54.677 : en:01:06:54.677
01:13:31.699 : en:01:13:31.699
01:20:35.205 : en:01:20:35.205
01:26:06.870 : en:01:26:06.870
01:32:08.732 : en:01:32:08.732

pb.wtf



Скачать Привидение через торрент http://pic1.kartinco.top/images/11/uemgr.jpg Скачать фильм Привидение через торрент бесплантно в хорошем качестве Описание: Каждый день он просыпается в новом теле. Его утро - это новый дом, новая семья, новые друзья. Он - бестелесный дух, который видит ... 8.7 10 6
Торрент: Зарегистрирован [2018-07-05 05:31] · скачан: 557 раз
Статус: √ проверено
Размер: 1.57 GB
Как cкачать? Как скачать Привидение через торрент | qTorrent

% Раздел Тема Автор DL S | L
R.G. Resident & PiratVoice - Фильмы, Видео [ 1.37 GB ] Привидение / Every Day [2018 BDRip от R.G. Resident] -Lexx- Скачать
7 | 0
Фильмы 2018 [DVDrip, WEB-DLRip, HDrip] (DUB, MVO) [ 1.42 GB ] Привидение / Every Day [2018 BDRip] - Twi7ter Скачать
5 | 0
Фильмы [HD 720p, 1080p] (Хороший звук DUB, MVO) [ 4.16 GB ] Привидение / Every Day [2018 BDRip 720p] bober100 Скачать
2 | 0
Фильмы 2018 [DVDrip, WEB-DLRip, HDrip] (DUB, MVO) [ 745 MB ] Привидение / Every Day [2018 HDRip] bober100 Скачать
1 | 0
Фильмы [HD 720p, 1080p] (Хороший звук DUB, MVO) [ 10.29 GB ] Привидение / Every Day [2018 BDRip 1080p] bober100 Скачать
1 | 0
Фильмы (Blu-ray, BD-Remux, HDDVD) [ 22.83 GB ] Привидение / Every Day [2018 BD Remux 1080p] bober100 Скачать
1 | 0
Фильмы 2018 [DVDrip, WEB-DLRip, HDrip] (DUB, MVO) [ 1.42 GB ] Привидение / Every Day [2018 BDRip] bober100 Скачать
2 | 0
Отключить всю рекламу на сайте

05-07-2018 18:47 Привидение Скачать торрент  

Фильм интересен.смотрел даже без перемотки.много слюней,но задумка прикольная👍pb.wtf



    Дорогой пользователь! Огромная просьба, поблагодарите релизера, оцените раздачу и оставьте свои комментарий, если Вы скачали Привидение через торрент бесплатно! Внесите свою лепту в развитие PiratBit!
    Комментировать посты могут только пользователи прошедшие не сложную регистрацию
    Показать сообщения:    

    Привидение через торрент
    Скачать бесплатно Привидение
    Привидение скачать торрент
    Привидение смотреть онлайн
    Cкачать фильм Привидение бесплатно
    Привидение скачать торрент в хорошем качестве
    Привидение смотреть онлайн бесплатно в хорошем качестве


    Вы не можете начинать темы
    Вы не можете отвечать на сообщения
    Вы не можете редактировать свои сообщения
    Вы не можете удалять свои сообщения
    Вы не можете голосовать в опросах
    Вы не можете прикреплять файлы к сообщениям
    Вы можете скачивать файлы