Ссылка на приватное зеркало всего за 1$. Внимание количество ограничено!!!

OK

1+1

iTunes

мы

OK

1

WEB-DLRip

Джокер

Пифагор

Ведьмак / The Witcher сериал

Лицензия

ПШазам

ОК

Оно 2

iTunes

30
pack

Вам бонус

ВАЖНО

!!Акция!!

Alien_RageХит недели

RePack

Resident Evil 21

ИГРА 18+

pack

RePack

jed

!!Акция!!

Alien_Rage

RePack

fifa19

RePack

Assassins Creed: Odyssey

RePack

NEED FOR SPEED™ PAYBACK

4 сезон

9 сезон

Бесстыжие 9 сезон

Все сериалы

все сериалы на PB.wtf

RePack

FAR CRY 5
  

Взлёты и падения: Последняя миссия / High & Low: The Movie 3 - Final Mission (Сигэаки Кубо, Цуёси Накакуки) [2017, боевик, драма, BDRip 720p] MVO [КОЛОБОК] pb.wtf

Взлёты и падения: Последняя миссия через торрент pb.wtf

Размер: 5.58 GB | Добавлен: 1 год 6 мес. назад | Торрент скачан:27 раз
Скачать  

05-07-2018 05:59 Взлёты и падения: Последняя миссия Скачать торрент  

Взлёты и падения: Последняя миссия / High & Low: The Movie 3 - Final Mission
Год выпуска: 2017
Страна: Япония
Жанр: боевик, драма
Продолжительность: 01:59:10
Перевод: Любительский (многоголосый) | КОЛОБОК
Субтитры: отсутствуют

Режиссер: Сигэаки Кубо, Цуёси Накакуки

rating

В ролях:

Акира, Anarchy, Сё Аояги, Элли, Юя Эндо, Хацунори Хасэгава, Кэнто Хаяси, Кэисукэ Хорибэ, Ватару Итиносэ, Наоко Иидзима

Описание:

Чтобы скрыть коррупцию со стороны правительства, специально обученная для этого группа Kyuryu снова выходитиз тени. Но на их пути встают члены SWORD, которые не допустят преступлений на улицах их города.

Качество: BDRip 720p
Формат: MKV

Видео: h.264, 6 255 Кбит/с, 1280x536
Аудио#1: Русский (AC3, 2 ch, 448 Кбит/с)
скриншот  скриншот  скриншот  

Общее
Уникальный идентификатор : 214795315613163380602249684595183222693 (0xA19812B1CA1164F6B3BF9ECEE3707FA5)
Полное имя : D:\High.&.Low.The.Movie.3.Final.Mission.2017.P.BDRip.72Op.mkv
Формат : Matroska
Версия формата : Version 2
Размер файла : 5,58 Гбайт
Продолжительность : 1 ч. 59 м.
Режим общего битрейта : Переменный
Общий поток : 6705 Кбит/сек
Дата кодирования : UTC 2018-07-04 19:54:21
Программа кодирования : mkvmerge v8.3.0 ('Over the Horizon') 64bit
Библиотека кодирования : libebml v1.3.1 + libmatroska v1.4.2

Видео
Идентификатор : 1
Формат : AVC
Формат/Информация : Advanced Video Codec
Профиль формата : High@L4.1
Параметр CABAC формата : Да
Параметр RefFrames формата : 4 кадра
Идентификатор кодека : V_MPEG4/ISO/AVC
Продолжительность : 1 ч. 59 м.
Вид битрейта : Переменный
Битрейт : 6255 Кбит/сек
Максимальный битрейт : 6900 Кбит/сек
Ширина : 1280 пикселей
Высота : 536 пикселей
Соотношение сторон : 2,40:1
Режим частоты кадров : Постоянный
Частота кадров : 23,976 (24000/1001) кадра/сек
Стандарт вещания : Component
Цветовое пространство : YUV
Субдискретизация насыщенности : 4:2:0
Битовая глубина : 8 бит
Тип развёртки : Прогрессивная
Бит/(Пиксели*Кадры) : 0.372
Размер потока : 5,10 Гбайт (91%)
Default : Да
Forced : Нет
Цветовой диапазон : Limited
Основные цвета : BT.709
Характеристики трансфера : BT.709
Коэффициенты матрицы : BT.709

Аудио
Идентификатор : 2
Формат : AC-3
Формат/Информация : Audio Coding 3
Расширение режима : CM (complete main)
Параметр Endianness формата : Big
Идентификатор кодека : A_AC3
Продолжительность : 1 ч. 59 м.
Вид битрейта : Постоянный
Битрейт : 448 Кбит/сек
Каналы : 2 канала
Расположение каналов : Front: L R
Частота : 48,0 КГц
Частота кадров : 31,250 кадров/сек (1536 spf)
Метод сжатия : С потерями
Размер потока : 382 Мбайт (7%)
Default : Да
Forced : Нет

pb.wtf



Скачать Взлёты и падения: Последняя миссия через торрент https://img11.lostpic.net/2018/07/05/fded6b6099ebf88e15fb4136cd60a250.jpg Скачать фильм Взлёты и падения: Последняя миссия через торрент бесплантно в хорошем качестве Описание: Чтобы скрыть коррупцию со стороны правительства, специально обученная для этого группа Kyuryu снова выходитиз тени. Но на их пути ... 10 10 2
Торрент: Зарегистрирован [2018-07-05 05:59] · скачан: 27 раз
Статус: # сомнительно
Размер: 5.58 GB
Как cкачать? Как скачать Взлёты и падения: Последняя миссия через торрент | qTorrent

28-11-2019 20:33  

Отключить всю рекламу на сайте

05-07-2018 12:43 Взлёты и падения: Последняя миссия Скачать торрент  

не досмотрел. ну нахрен, лучше б и не начинал)) такой сеттинг ништяково смотрится в школьных разборках ("Sugarless" например), а во взрослых декорациях... смешно как-то)) толпа тинейджеров бьет морды главарям якудза.. вы серьезно?! периодические флешбеки отсылают к предыдущим фильмам, которые, в свою очередь, отсылают нас к сериалу... вобщем, повторюсь - ну нахрен))
зы. "поздравляю" всех с рекламой нового казино) походу у казлино новое названиеpb.wtf



    Дорогой пользователь! Огромная просьба, поблагодарите релизера, оцените раздачу и оставьте свои комментарий, если Вы скачали Взлёты и падения: Последняя миссия через торрент бесплатно! Внесите свою лепту в развитие PiratBit!
    Комментировать посты могут только пользователи прошедшие не сложную регистрацию
    Показать сообщения:    

    Взлёты и падения: Последняя миссия через торрент
    Скачать бесплатно Взлёты и падения: Последняя миссия
    Взлёты и падения: Последняя миссия скачать торрент
    Взлёты и падения: Последняя миссия смотреть онлайн
    Cкачать фильм Взлёты и падения: Последняя миссия бесплатно
    Взлёты и падения: Последняя миссия скачать торрент в хорошем качестве
    Взлёты и падения: Последняя миссия смотреть онлайн бесплатно в хорошем качестве


    Вы не можете начинать темы
    Вы не можете отвечать на сообщения
    Вы не можете редактировать свои сообщения
    Вы не можете удалять свои сообщения
    Вы не можете голосовать в опросах
    Вы не можете прикреплять файлы к сообщениям
    Вы можете скачивать файлы