Ребята, если до конца года каждый наш пользователь пожертвует хотя бы 10 рублей, нам хватит денег оплатить все наши расходы.

iTunes

Хэллоуин

iTunes

venom

iTunes

Вы умрете, или мы вернем вам деньги

iTunes

iTunes

Тайна дома с часами

iTunes

Ничего хорошего в отеле «Эль рояль»

1080p

Хит недели

Лицензия

Агент Джонни Инглиш 3.0

ИГРА 18+

pack

RePack

Battlefield V

RePack

Assassins Creed: Odyssey
pack

Проголосуй

Лучший релизер 2018

RePack

Darksiders 3

iTunes 4K

venom Хит недели

RePack

fifa19

!!Акция!!

Alien_RageХит недели

RePack

NEED FOR SPEED™ PAYBACK

SATRip

9 сезон

Бесстыжие 9 сезон

Все сериалы

все сериалы на PB.wtf

iTunes

Мэнди

RePack

FAR CRY 5
  

Привидение / Every Day (Майкл Сакси) [2018, фэнтези, драма, мелодрама, BDRip от R.G. Resident] DUB [iTunes]

Привидение через торрент

Раздают: 10 [ 0 KB/s ]
Размер: 1.37 GB | Добавлен: 6 мес. назад | Торрент скачан:1428 раз
Скачать  

05-07-2018 06:49 Привидение Скачать торрент  

Привидение / Every Day
««Каждый день — новое тело. Каждый день — новая жизнь. Каждый день — влюблен в одну девушку»»

Год выпуска: 2018
Страна: США
Жанр: фэнтези, драма, мелодрама

Продолжительность: 01:37:39
Перевод: Дублированный [iTunes]
Режиссер: Майкл Сакси
В ролях:

Энгаури Райс (Rhiannon / A), Джастис Смит (Justin / A), Дженни Росс (Amy / A), Лукас Джейд Зуманн (Nathan / A), Рори Макдональд (David / A), Кэти Дуглас (Megan / A), Джейкоб Баталон (James / A), Иэн Александр (Vic / A), Шон Джонс (George / A), Колин Форд (Xavier / A), Джейк Сим (Michael / A), Николь Ло (Kelsea / A)
Описание:
Каждый день он просыпается в новом теле. Его утро - это новый дом, новая семья, новые друзья. Он - бестелесный дух, который видит мир глазами других и проживает короткие моменты чужих жизней. Но однажды он встречает Рианнон, и каждый день превращается в попытку вернуться к этой девушке, ставшей для него той самой единственной. Теперь им нужно найти способ остаться вместе.
Рейтинг:
rating
MPAA: PG-13 - Детям до 13 лет просмотр не желателен
Качество: BDRip
Формат: AVI
Видео: XviD, 720x304 (2.35:1), 1614 kbps, 23,976 fps, 0,308 bpp
Аудио: AC3 / 5.1 / 48 kHz / 384 kbps /

General
Complete name : F:\Every.Day.2018.BDRip.R.G.Resident.avi
Format : AVI
Format/Info : Audio Video Interleave
File size : 1.37 GiB
Duration : 1 h 37 min
Overall bit rate : 2 008 kb/s
Writing application : VirtualDubModRus 1.5.10.2 (build 2542/release)
Writing library : VirtualDubMod build 2542/release

Video
ID : 0
Format : MPEG-4 Visual
Format profile : Advanced Simple@L5
Format settings, BVOP : 1
Format settings, QPel : No
Format settings, GMC : No warppoints
Format settings, Matrix : Custom
Codec ID : XVID
Codec ID/Hint : XviD
Duration : 1 h 37 min
Bit rate : 1 615 kb/s
Width : 720 pixels
Height : 304 pixels
Display aspect ratio : 2.35:1
Frame rate : 23.976 (24000/1001) FPS
Color space : YUV
Chroma subsampling : 4:2:0
Bit depth : 8 bits
Scan type : Progressive
Compression mode : Lossy
Bits/(Pixel*Frame) : 0.308
Stream size : 1.10 GiB (80%)
Writing library : XviD 73

Audio
ID : 1
Format : AC-3
Format/Info : Audio Coding 3
Mode extension : CM (complete main)
Format settings, Endianness : Big
Codec ID : 2000
Duration : 1 h 37 min
Bit rate mode : Constant
Bit rate : 384 kb/s
Channel(s) : 6 channels
Channel positions : Front: L C R, Side: L R, LFE
Sampling rate : 48.0 kHz
Frame rate : 31.250 FPS (1536 spf)
Compression mode : Lossy
Stream size : 268 MiB (19%)
Alignment : Split accross interleaves
Interleave, duration : 42 ms (1.00 video frame)
Interleave, preload duration : 500 ms



Скачать Привидение через торрент http://i77.fastpic.ru/big/2016/0417/a7/808a646271c761f7c7d87df3d366b3a7.png Скачать фильм Привидение через торрент бесплантно в хорошем качестве Описание: Каждый день он просыпается в новом теле. Его утро - это новый дом, новая семья, новые друзья. Он - бестелесный дух, который видит ... 9.5 10 32
Info! Золотая раздача, скачанное не засчитывается.
Торрент: Зарегистрирован [2018-07-05 06:49] · скачан: 1 428 раз
Статус: √ проверено
Размер: 1.37 GB
Как cкачать? Как скачать Привидение через торрент | qTorrent

% Раздел Тема Автор DL S | L
Фильмы 2018 [DVDrip, WEB-DLRip, HDrip] (DUB, MVO) [ 1.42 GB ] Привидение / Every Day [2018 BDRip] - Twi7ter Скачать
56 | 2
Фильмы [HD 720p, 1080p] (Хороший звук DUB, MVO) [ 4.16 GB ] Привидение / Every Day [2018 BDRip 720p] bober100 Скачать
5 | 0
Фильмы 2018 [DVDrip, WEB-DLRip, HDrip] (DUB, MVO) [ 1.57 GB ] Привидение / Every Day [2018 BDRip-AVC] bober100 Скачать
2 | 0
Фильмы 2018 [DVDrip, WEB-DLRip, HDrip] (DUB, MVO) [ 745 MB ] Привидение / Every Day [2018 HDRip] bober100 Скачать
2 | 0
Фильмы [HD 720p, 1080p] (Хороший звук DUB, MVO) [ 10.29 GB ] Привидение / Every Day [2018 BDRip 1080p] bober100 Скачать
4 | 0
Фильмы (Blu-ray, BD-Remux, HDDVD) [ 22.83 GB ] Привидение / Every Day [2018 BD Remux 1080p] bober100 Скачать
1 | 0
Фильмы 2018 [DVDrip, WEB-DLRip, HDrip] (DUB, MVO) [ 1.42 GB ] Привидение / Every Day [2018 BDRip] bober100 Скачать
1 | 0


>> Регистрируемся здесь <<






Отзывы и комментарии о схеме читаем и пишем здесь: ---> Отзывы и комментарии о схеме

Новые благодарочки в телеграм довольных пользователей:
скриншот   скриншот   скриншот   скриншот   скриншот

05-07-2018 10:37 Привидение Скачать торрент  

Ну фильм такой посмотрел 20 мин и спать пошел :D



05-07-2018 18:48 Привидение Скачать торрент  

liplipa931 писал(а):

Ну фильм такой посмотрел 20 мин и спать пошел :D

На вкус и цвет...По мне так Марвеловские кина А этот досмотрел до конца,хотя посмотрев трейлер ожидал большего...



11-12-2018 14:14 Привидение Скачать торрент  

А мне понравился,милый,трогательный,довольно необычный,без всяого гламура и пошлятины.



    Дорогой пользователь! Огромная просьба, поблагодарите релизера, оцените раздачу и оставьте свои комментарий, если Вы скачали Привидение через торрент бесплатно! Внесите свою лепту в развитие PiratBit!
    Комментировать посты могут только пользователи прошедшие не сложную регистрацию
    Показать сообщения:    

    Привидение через торрент
    Скачать бесплатно Привидение
    Привидение скачать торрент
    Привидение смотреть онлайн
    Cкачать фильм Привидение бесплатно
    Привидение скачать торрент в хорошем качестве
    Привидение смотреть онлайн бесплатно в хорошем качестве


    Вы не можете начинать темы
    Вы не можете отвечать на сообщения
    Вы не можете редактировать свои сообщения
    Вы не можете удалять свои сообщения
    Вы не можете голосовать в опросах
    Вы не можете прикреплять файлы к сообщениям
    Вы можете скачивать файлы