новый адрес пиратбит piratbit
Мега распродажа FORZA HORIZON 4 ULTIMATE+ВСЕ DLC+ОНЛАЙН всего за 499р. 349 руб. (супер цена). Внимание количество ограничено!!!

iTunes

1+1

iTunes

мы

iTunes

1

iTunes

Чернобыль

iTunes

Ральф против интернета

Лицензия

ПШазам

Лицензия

Игра престолов

Лицензия

30
pack

ВАЖНО

!!Акция!!

Alien_RageХит недели

RePack

Resident Evil 21

ИГРА 18+

pack

RePack

Metro:Exodus

!!Акция!!

Alien_Rage

RePack

fifa19

RePack

Assassins Creed: Odyssey

RePack

NEED FOR SPEED™ PAYBACK

3 сезон

9 сезон

Бесстыжие 9 сезон

Все сериалы

все сериалы на PB.wtf

RePack

FAR CRY 5
Ребята, катастрофически не хватает 1900р. для оплаты серверов за Октябрь (всвязи с блокировками трафик упал в 3 раза), 1-2р., выручайте.
  

Операция «Кобра» (Дмитрий Васильев) [1960, СССР, боевик, приключения, SATRip от AVP Studio] pb.wtf

Операция «Кобра» через торрент pb.wtf

Размер: 1.09 GB | Добавлен: 1 год 4 мес. назад | Торрент скачан:17 раз
Скачать  

05-07-2018 07:48 Операция «Кобра» Скачать торрент  

Операция «Кобра»
Страна: СССР
Производство: Таджикфильм

Жанр: боевик, приключения
Год выпуска: 1960
Продолжительность: 01:23:11

Перевод: Не требуется
Cубтитры: нет
Оригинальная аудиодорожка: русский

Режиссер: Дмитрий Васильев

В ролях:
Василий Макаров, Олег Жаков, Леонид Чубаров, Т. Ишанходжаев, Гурминдж Завкибеков, Шамси Киямов, Г. Ниязов, Сталина Азаматова, Галина Фролова, Пулат Ахмедов, Абдульхайр Касымов, Константин Старостин...
Об актёрах подробней

Описание:
"Собака явно дрессированная. Людей не подпускает к себе, на приманку не идёт", - докладывали часовые секретного объекта. Эту собаку много раз видели здесь. Вероятно, на неё надевают микрофотоаппарат. Хозяин этой собаки был задержан у самой границы. Среди вещей диверсанта оказалась дудочка: с её помощью он отсылал и возвращал собаку. Диверсант успел застрелиться при задержании...

Исходник: DVB
Качество видео: SATRip
Формат видео: AVI

Видео: 704x528 (4:3), 25,000 кадров/сек, XviD ~ 1674 kbps avg, 0.180 bit/pixel
Аудио: 48 kHz, Dolby Digital AC3 2.0, 192 kbps

Раздача от:
Общее
Полное имя : Operaciya.Kobra.1960.SATRip_[New-team]_by_AVP_Studio.avi
Формат : AVI
Формат/Информация : Audio Video Interleave
Размер файла : 1,09 Гбайт
Продолжительность : 1 ч. 23 м.
Общий поток : 1876 Кбит/сек
Программа кодирования : VirtualDubMod 1.5.10.3 | www.virtualdub-fr.org || (build 2550/release)
Библиотека кодирования : VirtualDubMod build 2550/release

Видео
Идентификатор : 0
Формат : MPEG-4 Visual
Профиль формата : Advanced Simple@L5
Настройки формата : BVOP1 / Custom Matrix
Параметр BVOP формата : 1
Параметр QPel формата : Нет
Параметр GMC формата : Без точки перехода
Параметр матрицы формата : Выборочная
Идентификатор кодека : XVID
Идентификатор кодека/Подсказка : XviD
Продолжительность : 1 ч. 23 м.
Битрейт : 1674 Кбит/сек
Ширина : 704 пикселя
Высота : 528 пикселей
Соотношение сторон : 4:3
Частота кадров : 25,000 кадров/сек
Цветовое пространство : YUV
Субдискретизация насыщенности : 4:2:0
Битовая глубина : 8 бит
Тип развёртки : Прогрессивная
Метод сжатия : С потерями
Бит/(Пиксели*Кадры) : 0.180
Размер потока : 996 Мбайт (89%)
Библиотека кодирования : XviD 73

Аудио
Идентификатор : 1
Формат : AC-3
Формат/Информация : Audio Coding 3
Идентификатор кодека : 2000
Продолжительность : 1 ч. 23 м.
Вид битрейта : Постоянный
Битрейт : 192 Кбит/сек
Каналы : 2 канала
Расположение каналов : Front: L R
Частота : 48,0 КГц
Частота кадров : 31,250 кадров/сек (1536 SPF)
Битовая глубина : 16 бит
Метод сжатия : С потерями
Размер потока : 114 Мбайт (10%)
Выравнивание : Разделение по промежуткам
Продолжительность промежутка : 40 мс. (1,00 видеокадр)
Время предзагрузки промежутка : 500 мс
pb.wtf



Скачать Операция «Кобра» через торрент http://picplus.ru/img/1807/05/3bdc00d6.png Скачать фильм Операция «Кобра» через торрент бесплантно в хорошем качестве Описание:"Собака явно дрессированная. Людей не подпускает к себе, на приманку не идёт", - докладывали часовые секретного объекта. Эту ... 5 10 1
Info! Золотая раздача, скачанное не засчитывается.
Торрент: Зарегистрирован [2018-07-05 07:48] · скачан: 17 раз
Статус: √ проверено
Размер: 1.09 GB
Как cкачать? Как скачать Операция «Кобра» через торрент | qTorrent

% Раздел Тема Автор DL S | L
Кино СССР [ 1.09 GB ] Операция «Кобра» [1960 СССР SATRip-AVC от AVP Studio] AVP Studio Скачать
1 | 0
Документальные фильмы и телепередачи [ 700 MB ] Убежище нацистов в Средиземноморье. Тайная операция "Кобра" / Refugios nazis en el Mediterraneo. Operacion Kobra [2008 документальный история SATRip двухголосый] metanoia Скачать
1 | 0


>> Регистрируемся здесь <<






Отзывы и комментарии о схеме читаем и пишем здесь: ---> Отзывы и комментарии о схеме

Новые благодарочки в телеграм довольных пользователей:
скриншот   скриншот   скриншот   скриншот   скриншот
    Дорогой пользователь! Огромная просьба, поблагодарите релизера, оцените раздачу и оставьте свои комментарий, если Вы скачали Операция «Кобра» через торрент бесплатно! Внесите свою лепту в развитие PiratBit!
    Комментировать посты могут только пользователи прошедшие не сложную регистрацию
    Показать сообщения:    

    Операция «Кобра» через торрент
    Скачать бесплатно Операция «Кобра»
    Операция «Кобра» скачать торрент
    Операция «Кобра» смотреть онлайн
    Cкачать фильм Операция «Кобра» бесплатно
    Операция «Кобра» скачать торрент в хорошем качестве
    Операция «Кобра» смотреть онлайн бесплатно в хорошем качестве


    Вы не можете начинать темы
    Вы не можете отвечать на сообщения
    Вы не можете редактировать свои сообщения
    Вы не можете удалять свои сообщения
    Вы не можете голосовать в опросах
    Вы не можете прикреплять файлы к сообщениям
    Вы можете скачивать файлы