Достать ножи: Стеклянная луковица

MVO

Добыча

Дубляж

Уэнсдэй

1 сезон

Тор

Дубляж

13 клиническая

1 сезон

Жестокая ночь

MVO

Одни из нас

1 сезон

Deluxe

pack

Рекомендуем

30

Пиратка

ВАЖНО

ВАЖНО

Ghostwire

Пиратка

jed

RePack

nioh2

RePack

RDR2

RePack

NEED FOR SPEED™ PAYBACK

RePack

скачать торрент

Кинопоиск HD

Острые козырьки 6 сезон

6 сезон

FAR CRY 6

RePack

скачать торрент

Лицензия

скачать торрент

MVO

1

1 сезон

скачать торрент

1 сезон

скачать торрент

Лицензия

  

Человек - швейцарский нож / Swiss Army Man (Дэн Кван, Дэниэл Шайнерт) [2016, фэнтези, драма, мелодрама, комедия, приключения, BDRip 1080p ] Дубляж, 2 x AVO

Человек - швейцарский нож через торрент pb.wtf

Размер: 11.01 GB | Добавлен: 4 года 6 мес. назад | Торрент скачан:50 раз
Смотреть онлайн | Скачать | Поддержите нас   

05-07-2018 08:32 Человек - швейцарский нож Скачать торрент  

Название: Человек – швейцарский нож
Оригинальное название: Swiss Army Man
Год выпуска: 2016
Страна: США, Швеция
Жанр: фэнтези, драма, мелодрама, комедия, приключения
Продолжительность: 01:37:23
Перевод: дублированный, авторский

Режиссер: Дэн Кван, Дэниэл Шайнерт
В ролях: Тимоти Йолих, Ричард Гросс, Дэниэл Рэдклифф, Мэри Элизабет Уинстэд, Энди Халл, Антония Риберо, Аарон Маршалл, Пол Дано, Марика Кастил

Описание: Оказавшись на необитаемом острове, Хэнк уже был готов потерять всякую надежду, но всё меняется, когда на берегу он находит труп по имени Мэнни. Многофункциональность Мэнни поможет Хэнку выжить в диких условиях и заново обрести радость жизни. Вместе они отправятся в эпическое приключение, которое вернет Хэнка к девушке его мечты...



Качество: BDRip 1080p
Формат: MKV
Видео: MPEG-4 AVC, 12.1 Mбит/с, 1920x800
Аудио 1: русский, AC3, 448 kbps, 6 ch, 48 kHz [дублированный]
Аудио 2: русский, DTS, 1509 kbps, 6 ch, 48 kHz [авторский, Дмитрий Есарев, с неномативной лексикой]
Аудио 3: русский, DTS, 1509 kbps, 6 ch, 48 kHz [авторский, Юрий Сербин]
Аудио 4: английский, AC3, 640 kbps, 6 ch, 48 kHz [оригинал]
Субтитры 1: русские (с неномативной лексикой)
Субтитры 2: английские
Главы/чаптеры
Общее
Уникальный идентификатор : 252932819508596702897345128006295107044 (0xBE4916CF528D68B689DD8ED7CD6635E4)
Полное имя : D:\Video\Человек - швейцарский нож.2016.BDRip.1080p by msltel.mkv
Формат : Matroska
Версия формата : Version 4 / Version 2
Размер файла : 11,0 Гбайт
Продолжительность : 1 ч. 37 м.
Общий поток : 16,2 Мбит/сек
Название фильма : Rip by msltel
Дата кодирования : UTC 2018-07-05 02:26:09
Программа кодирования : mkvmerge v8.2.0 ('World of Adventure') 64bit
Библиотека кодирования : libebml v1.3.1 + libmatroska v1.4.2

Видео
Идентификатор : 1
Формат : AVC
Формат/Информация : Advanced Video Codec
Профиль формата : [email protected]
Настройки формата : CABAC / 4 Ref Frames
Параметр CABAC формата : Да
Параметр RefFrames формата : 4 кадра
Идентификатор кодека : V_MPEG4/ISO/AVC
Продолжительность : 1 ч. 37 м.
Битрейт : 12,1 Мбит/сек
Ширина : 1920 пикселей
Высота : 800 пикселей
Соотношение сторон : 2,40:1
Режим частоты кадров : Постоянный
Частота кадров : 23,976 (24000/1001) кадра/сек
Цветовое пространство : YUV
Субдискретизация насыщенности : 4:2:0
Битовая глубина : 8 бит
Тип развёртки : Прогрессивная
Бит/(Пиксели*Кадры) : 0.328
Размер потока : 8,22 Гбайт (75%)
Библиотека кодирования : x264 core 146 r2538 121396c
Настройки программы : cabac=1 / ref=4 / deblock=1:-3:-2 / analyse=0x3:0x113 / me=umh / subme=11 / psy=1 / psy_rd=1.00:0.15 / mixed_ref=1 / me_range=32 / chroma_me=1 / trellis=2 / 8x8dct=1 / cqm=0 / deadzone=21,11 / fast_pskip=0 / chroma_qp_offset=-3 / threads=6 / lookahead_threads=1 / sliced_threads=0 / nr=0 / decimate=1 / interlaced=0 / bluray_compat=0 / constrained_intra=0 / bframes=10 / b_pyramid=2 / b_adapt=2 / b_bias=0 / direct=1 / weightb=1 / open_gop=0 / weightp=2 / keyint=230 / keyint_min=23 / scenecut=40 / intra_refresh=0 / rc_lookahead=40 / rc=crf / mbtree=0 / crf=18.3 / qcomp=0.60 / qpmin=0 / qpmax=69 / qpstep=4 / vbv_maxrate=62500 / vbv_bufsize=78125 / crf_max=0.0 / nal_hrd=none / filler=0 / ip_ratio=1.40 / pb_ratio=1.30 / aq=1:1.00
Язык : English
Default : Да
Forced : Нет

Аудио #1
Идентификатор : 2
Формат : AC-3
Формат/Информация : Audio Coding 3
Идентификатор кодека : A_AC3
Продолжительность : 1 ч. 37 м.
Вид битрейта : Постоянный
Битрейт : 448 Кбит/сек
Каналы : 6 каналов
Расположение каналов : Front: L C R, Side: L R, LFE
Частота : 48,0 КГц
Частота кадров : 31,250 кадров/сек (1536 SPF)
Битовая глубина : 16 бит
Метод сжатия : С потерями
Размер потока : 312 Мбайт (3%)
Заголовок : Дубляж
Язык : Russian
ServiceKind/String : Complete Main
Default : Да
Forced : Нет

Аудио #2
Идентификатор : 3
Формат : DTS
Формат/Информация : Digital Theater Systems
Идентификатор кодека : A_DTS
Продолжительность : 1 ч. 37 м.
Вид битрейта : Постоянный
Битрейт : 1509 Кбит/сек
Каналы : 6 каналов
Расположение каналов : Front: L C R, Side: L R, LFE
Частота : 48,0 КГц
Частота кадров : 93,750 кадра/сек (512 SPF)
Битовая глубина : 24 бит
Метод сжатия : С потерями
Размер потока : 1,03 Гбайт (9%)
Заголовок : Дмитрий Есарев, с ненормативной лексикой
Язык : Russian
Default : Нет
Forced : Нет

Аудио #3
Идентификатор : 4
Формат : DTS
Формат/Информация : Digital Theater Systems
Идентификатор кодека : A_DTS
Продолжительность : 1 ч. 37 м.
Вид битрейта : Постоянный
Битрейт : 1509 Кбит/сек
Каналы : 6 каналов
Расположение каналов : Front: L C R, Side: L R, LFE
Частота : 48,0 КГц
Частота кадров : 93,750 кадра/сек (512 SPF)
Битовая глубина : 24 бит
Метод сжатия : С потерями
Размер потока : 1,03 Гбайт (9%)
Заголовок : Юрий Сербин
Язык : Russian
Default : Нет
Forced : Нет

Аудио #4
Идентификатор : 5
Формат : AC-3
Формат/Информация : Audio Coding 3
Идентификатор кодека : A_AC3
Продолжительность : 1 ч. 37 м.
Вид битрейта : Постоянный
Битрейт : 640 Кбит/сек
Каналы : 6 каналов
Расположение каналов : Front: L C R, Side: L R, LFE
Частота : 48,0 КГц
Частота кадров : 31,250 кадров/сек (1536 SPF)
Битовая глубина : 16 бит
Метод сжатия : С потерями
Размер потока : 446 Мбайт (4%)
Заголовок : original
Язык : English
ServiceKind/String : Complete Main
Default : Нет
Forced : Нет

Текст #1
Идентификатор : 6
Формат : UTF-8
Идентификатор кодека : S_TEXT/UTF8
Идентификатор кодека/Информация : UTF-8 Plain Text
Продолжительность : 1 ч. 29 м.
Битрейт : 81 бит/сек
ElementCount : 1035
Размер потока : 53,6 Кбайт (0%)
Заголовок : русские, с ненормативной лексикой
Язык : Russian
Default : Нет
Forced : Нет

Текст #2
Идентификатор : 7
Формат : UTF-8
Идентификатор кодека : S_TEXT/UTF8
Идентификатор кодека/Информация : UTF-8 Plain Text
Продолжительность : 1 ч. 33 м.
Битрейт : 50 бит/сек
ElementCount : 1130
Размер потока : 34,4 Кбайт (0%)
Заголовок : английские
Язык : English
Default : Нет
Forced : Нет

Меню
00:00:00.000 : en:00:00:00.000
00:08:47.902 : en:00:08:47.902
00:13:14.335 : en:00:13:14.335
00:17:42.228 : en:00:17:42.228
00:25:11.593 : en:00:25:11.593
00:32:46.256 : en:00:32:46.256
00:37:17.068 : en:00:37:17.068
00:44:39.260 : en:00:44:39.260
00:51:44.101 : en:00:51:44.101
00:57:57.224 : en:00:57:57.224
01:03:19.337 : en:01:03:19.337
01:06:17.140 : en:01:06:17.140
01:10:05.535 : en:01:10:05.535
01:16:40.679 : en:01:16:40.679
01:22:10.092 : en:01:22:10.092
01:27:31.788 : en:01:27:31.788



Скачать Человек - швейцарский нож через торрент https://d.radikal.ru/d07/1807/17/3eccbcb725bc.jpg Скачать, смотреть онлайн Человек - швейцарский нож бесплантно в хорошем качестве Описание: Оказавшись на необитаемом острове, Хэнк уже был готов потерять всякую надежду, но всё меняется, когда на берегу он находит труп ... 7.8 10 4
Info! Золотая раздача, скачанное не засчитывается.
Торрент: Зарегистрирован [2018-07-05 08:32] · скачан: 50 раз
Статус: √ проверено
Размер: 11.01 GB
Как cкачать? Как скачать Человек - швейцарский нож через торрент | UTorrent

28-11-2019 20:33  


Отключить вcю реклaмy на сайте, в т.ч. и в плеере онлайн просмотра!

05-07-2018 15:51 Человек - швейцарский нож Скачать торрент  




06-07-2018 05:12 Человек - швейцарский нож Скачать торрент  

Многофункциональный-это постоянно и весь фильм пердящий труп?



    Дорогой пользователь! Огромная просьба, поблагодарите релизера, оцените раздачу и оставьте свои комментарий, если Вы скачали Человек - швейцарский нож через торрент бесплатно!!
    Комментировать посты могут только пользователи прошедшие не сложную регистрацию
    Показать сообщения:    


    Человек - швейцарский нож через торрент
    Скачать бесплатно Человек - швейцарский нож
    Человек - швейцарский нож скачать торрент
    Человек - швейцарский нож смотреть онлайн
    Cкачать фильм Человек - швейцарский нож бесплатно
    Человек - швейцарский нож скачать торрент в хорошем качестве
    Человек - швейцарский нож смотреть онлайн бесплатно в хорошем качестве
    Вы не можете начинать темы
    Вы не можете отвечать на сообщения
    Вы не можете редактировать свои сообщения
    Вы не можете удалять свои сообщения
    Вы не можете голосовать в опросах
    Вы не можете прикреплять файлы к сообщениям
    Вы можете скачивать файлы
    Человек - швейцарский нож / Swiss Army Man [2016, фэнтези, драма, мелодрама, комедия, приключения, BDRip 1080p ] Дубляж, 2 x AVO смотреть онлайн, скачать торрент picoco.icu