новый адрес
Ссылка на приватное зеркало всего за 1$. Внимание количество ограничено!!!

iTunes

1+1

iTunes

мы

iTunes

1

iTunes

Чернобыль

iTunes

Ральф против интернета

Лицензия

ПШазам

Лицензия

Оно 2

Лицензия

30
pack

Вам бонус

ВАЖНО

!!Акция!!

Alien_RageХит недели

RePack

Resident Evil 21

ИГРА 18+

pack

RePack

jed

!!Акция!!

Alien_Rage

RePack

fifa19

RePack

Assassins Creed: Odyssey

RePack

NEED FOR SPEED™ PAYBACK

3 сезон

9 сезон

Бесстыжие 9 сезон

Все сериалы

все сериалы на PB.wtf

RePack

FAR CRY 5
Ребята, катастрофически не хватает 1900р. для оплаты серверов за Октябрь (всвязи с блокировками трафик упал в 3 раза), 1-2р., выручайте.
  

По данным уголовного розыска (Валерий Михайловский) [1979 г., Криминал, военный, DVDRip-AVC] pb.wtf

По данным уголовного розыска через торрент pb.wtf

Размер: 1.43 GB | Добавлен: 1 год 4 мес. назад | Торрент скачан:23 раза
Скачать  

05-07-2018 14:17 По данным уголовного розыска Скачать торрент  

По данным уголовного розыска
Год выпуска: 1979
Страна: СССР
Жанр: Криминал, военный
Продолжительность: 01:09:31
Субтитры: Отсутствуют

Режиссер: Валерий Михайловский



В ролях: Леонид Неведомский, Александр Соловьев, Алексей Эйбоженко, Геннадий Крынкин, Алексей Михайлов, Георгий Штиль, Николай Скоробогатов, Николай Буров, Юрий Назаров, Александр Хочинский, Виктор Проскурин, Владимир Кенигсон, Елена Шанина...

Описание: В июле 1941 года наступающими немецкими войсками была перехвачена машина, перевозившая ювелирные изделия. Руководство германской разведки решило внедрить своего агента по документам убитого инкассатора…
В августе 1942 года была убита семья ювелира Ивановского. Группа сотрудников МУРа во главе с опытным чекистом Даниловым начала свою операцию по обезвреживанию опасных преступников, которые были подготовлены в школах СД и Абвера для выполнения диверсионной работы. Важную роль в поимке вражеских агентов отводилась бывшему вору Кострову…

Качество: DVDRip-AVC
Формат: MKV
Видео кодек: AVC
Аудио кодек: AC3
Видео: AVC, 1024x576 , 25.0fps, 2700 Kbps
Аудио#1: AC3 , 2 ch , 48 kHz , 224 kbps
Общее
Уникальный идентификатор : 247903587924774729790945862971520293423 (0xBA807E8C722C8409B1CE9B5AE1E19A2F)
Полное имя : D:1979.По данным уголовного..mkv
Формат : Matroska
Версия формата : Version 4 / Version 2
Размер файла : 1,43 Гбайт
Продолжительность : 1 ч. 9 м.
Общий поток : 2935 Кбит/сек
Дата кодирования : UTC 2014-05-15 11:26:58
Программа кодирования : mkvmerge v6.9.1 ('Blue Panther') 32bit built on Apr 18 2014 18:15:44
Библиотека кодирования : libebml v1.3.0 + libmatroska v1.4.1

Видео
Идентификатор : 1
Формат : AVC
Формат/Информация : Advanced Video Codec
Профиль формата : High@L4.1
Параметр CABAC формата : Да
Параметр ReFrames формата : 7 кадров
Идентификатор кодека : V_MPEG4/ISO/AVC
Продолжительность : 1 ч. 9 м.
Битрейт : 2700 Кбит/сек
Ширина : 1024 пикселя
Высота : 576 пикселей
Соотношение сторон : 16:9
Режим частоты кадров : Постоянный
Частота кадров : 25,000 кадров/сек
Цветовое пространство : YUV
Субдискретизация насыщенности : 4:2:0
Битовая глубина : 8 бит
Тип развёртки : Прогрессивная
Бит/(Пиксели*Кадры) : 0.183
Размер потока : 1,29 Гбайт (90%)
Заголовок : 1979 По данным уголовного розыска / Работа со звуком renta23 / Риппер renta23
Библиотека кодирования : x264 core 125 r2208 d9d2288
Настройки программы : cabac=1 / ref=8 / deblock=1:-1:-1 / analyse=0x3:0x133 / me=umh / subme=9 / psy=1 / psy_rd=1.00:0.15 / mixed_ref=1 / me_range=24 / chroma_me=1 / trellis=1 / 8x8dct=1 / cqm=0 / deadzone=21,11 / fast_pskip=0 / chroma_qp_offset=-3 / threads=12 / lookahead_threads=2 / sliced_threads=0 / nr=0 / decimate=1 / interlaced=0 / bluray_compat=0 / constrained_intra=0 / bframes=6 / b_pyramid=1 / b_adapt=1 / b_bias=0 / direct=2 / weightb=1 / open_gop=0 / weightp=2 / keyint=250 / keyint_min=25 / scenecut=40 / intra_refresh=0 / rc_lookahead=60 / rc=abr / mbtree=1 / bitrate=2700 / ratetol=1.0 / qcomp=0.60 / qpmin=0 / qpmax=69 / qpstep=4 / ip_ratio=1.40 / aq=1:1.00
Язык : Russian
Default : Да
Forced : Нет

Аудио
Идентификатор : 2
Формат : AC-3
Формат/Информация : Audio Coding 3
Расширение режима : CM (complete main)
Параметр Endianness формата : Big
Идентификатор кодека : A_AC3
Продолжительность : 1 ч. 9 м.
Вид битрейта : Постоянный
Битрейт : 224 Кбит/сек
Каналы : 2 канала
Расположение каналов : Front: L R
Частота : 48,0 КГц
Битовая глубина : 16 бит
Метод сжатия : С потерями
Размер потока : 111 Мбайт (8%)
Язык : Russian
Default : Да
Forced : Нет

pb.wtf



Скачать По данным уголовного розыска через торрент http://i104.fastpic.ru/big/2018/0705/08/6fda529f590db095c205767ed2c5bf08.png Скачать фильм По данным уголовного розыска через торрент бесплантно в хорошем качестве Описание: В июле 1941 года наступающими немецкими войсками была перехвачена машина, перевозившая ювелирные изделия. Руководство германской ... 10 10 3
Торрент: Зарегистрирован [2018-07-05 14:17] · скачан: 23 раз
Статус: √ проверено
Размер: 1.43 GB
Как cкачать? Как скачать По данным уголовного розыска через торрент | qTorrent

% Раздел Тема Автор DL S | L
Кино СССР [ 1.09 GB ] По данным уголовного розыска... [1979 СССР военный DVDRip-AVC от AVP Studio] AVP Studio Скачать
21 | 3
    Дорогой пользователь! Огромная просьба, поблагодарите релизера, оцените раздачу и оставьте свои комментарий, если Вы скачали По данным уголовного розыска через торрент бесплатно! Внесите свою лепту в развитие PiratBit!
    Комментировать посты могут только пользователи прошедшие не сложную регистрацию
    Показать сообщения:    

    По данным уголовного розыска через торрент
    Скачать бесплатно По данным уголовного розыска
    По данным уголовного розыска скачать торрент
    По данным уголовного розыска смотреть онлайн
    Cкачать фильм По данным уголовного розыска бесплатно
    По данным уголовного розыска скачать торрент в хорошем качестве
    По данным уголовного розыска смотреть онлайн бесплатно в хорошем качестве


    Вы не можете начинать темы
    Вы не можете отвечать на сообщения
    Вы не можете редактировать свои сообщения
    Вы не можете удалять свои сообщения
    Вы не можете голосовать в опросах
    Вы не можете прикреплять файлы к сообщениям
    Вы можете скачивать файлы