Ссылка на приватное зеркало всего за 1$. Внимание количество ограничено!!!

OK

1+1

iTunes

мы

OK

1

WEB-DLRip

Джокер

Пифагор

Ведьмак / The Witcher сериал

iTunes

ПШазам

ОК

Оно 2

iTunes

30
pack

Вам бонус

ВАЖНО

!!Акция!!

Alien_RageХит недели

RePack

Resident Evil 21

ИГРА 18+

pack

RePack

jed

RePack

fifa19

RePack

Assassins Creed: Odyssey

RePack

NEED FOR SPEED™ PAYBACK

4 сезон

9 сезон

Бесстыжие 9 сезон

Все сериалы

все сериалы на PB.wtf

RePack

FAR CRY 5
  

Убийственно сексуальные / Dead Sexy (Брайан Ньюэлл) [2018, комедия, WEB-DL 720p] MVO ["Синема УС"] pb.wtf

Убийственно сексуальные через торрент pb.wtf

Размер: 2.81 GB | Добавлен: 1 год 6 мес. назад | Торрент скачан:91 раз
Скачать  

05-07-2018 15:14 Убийственно сексуальные Скачать торрент  

Убийственно сексуальные / Dead SexyГод выпуска: 2018
Страна: США
Жанр: комедия
Продолжительность: 01:26:05
Перевод: Любительский (многоголосый) | "Синема УС"
Субтитры: отсутствуют

Режиссер: Брайан Ньюэлл

rating

В ролях:

Александра Джонстон, Джаски Вене, Грета Гарлэнд, Трэвис Леонард, Тайлер Трайс Рохас, Шон Майкл Макнамара, Сюзанн Стоукс, Рэнди Райт . Эмметт МакГи

Описание:

Комедия про трех подружек: Эмбер, Брэнди и Кэсси, поселившихся в доме с приведением, которое сделает с ними такое, после чего у девушек отпадёт нужда в противоположном поле.

Качество: WEB-DL 720p
Формат: MKV

Видео: h.264, 4 291 kb/s, 1280x670
Аудио#1: Русский, (AC3, 2 ch, 384 Кбит/с)
скриншот  скриншот  скриншот  

Общее
Уникальный идентификатор : 214279570695733406168279427108867154463 (0xA134BE81C0208EB587AA0BC6DD04221F)
Полное имя : D:\Dead.Sexy.2018.P.WEB-DL.72Op_KOSHARA.mkv
Формат : Matroska
Версия формата : Version 2
Размер файла : 2,81 Гбайт
Продолжительность : 1 ч. 26 м.
Режим общего битрейта : Переменный
Общий поток : 4677 Кбит/сек
Дата кодирования : UTC 2018-07-05 07:16:08
Программа кодирования : mkvmerge v8.3.0 ('Over the Horizon') 64bit
Библиотека кодирования : libebml v1.3.1 + libmatroska v1.4.2

Видео
Идентификатор : 1
Формат : AVC
Формат/Информация : Advanced Video Codec
Профиль формата : High@L4.1
Параметр CABAC формата : Да
Параметр RefFrames формата : 4 кадра
Идентификатор кодека : V_MPEG4/ISO/AVC
Продолжительность : 1 ч. 26 м.
Вид битрейта : Переменный
Битрейт : 4291 Кбит/сек
Максимальный битрейт : 5000 Кбит/сек
Ширина : 1280 пикселей
Высота : 670 пикселей
Соотношение сторон : 1,910
Режим частоты кадров : Постоянный
Частота кадров : 23,976 (24000/1001) кадра/сек
Стандарт вещания : Component
Цветовое пространство : YUV
Субдискретизация насыщенности : 4:2:0
Битовая глубина : 8 бит
Тип развёртки : Прогрессивная
Бит/(Пиксели*Кадры) : 0.204
Размер потока : 2,53 Гбайт (90%)
Default : Да
Forced : Нет
Цветовой диапазон : Limited
Основные цвета : BT.709
Характеристики трансфера : BT.709
Коэффициенты матрицы : BT.709

Аудио
Идентификатор : 2
Формат : AC-3
Формат/Информация : Audio Coding 3
Расширение режима : CM (complete main)
Параметр Endianness формата : Big
Идентификатор кодека : A_AC3
Продолжительность : 1 ч. 26 м.
Вид битрейта : Постоянный
Битрейт : 384 Кбит/сек
Каналы : 2 канала
Расположение каналов : Front: L R
Частота : 48,0 КГц
Частота кадров : 31,250 кадров/сек (1536 spf)
Метод сжатия : С потерями
Размер потока : 236 Мбайт (8%)
Default : Да
Forced : Нет

pb.wtf



Скачать Убийственно сексуальные через торрент https://img11.lostpic.net/2018/07/05/7ae282df2688a1703bcc66e6cbff5380.jpg Скачать фильм Убийственно сексуальные через торрент бесплантно в хорошем качестве Описание: Комедия про трех подружек: Эмбер, Брэнди и Кэсси, поселившихся в доме с приведением, которое сделает с ними такое, после чего у ... 9.8 10 4
Торрент: Зарегистрирован [2018-07-05 15:14] · скачан: 91 раз
Статус: T временная
Размер: 2.81 GB
Как cкачать? Как скачать Убийственно сексуальные через торрент | qTorrent

% Раздел Тема Автор DL S | L
T Фильмы (мультфильмы) cо спонсором показа (Новинки AVI/MKV) [ 1.37 GB ] Убийственно сексуальные / Dead Sexy [2018 WEB-DLRip] MVO ["Синема УС"] bober100 Скачать
1 | 0
Фильмы 2001-2005 [ 1.37 GB ] Убийственная сексуальность / Drop Dead Sexy [2005 DVDRip] aspace Скачать
1 | 0

28-11-2019 20:33  

Отключить всю рекламу на сайте

    Дорогой пользователь! Огромная просьба, поблагодарите релизера, оцените раздачу и оставьте свои комментарий, если Вы скачали Убийственно сексуальные через торрент бесплатно! Внесите свою лепту в развитие PiratBit!
    Комментировать посты могут только пользователи прошедшие не сложную регистрацию
    Показать сообщения:    

    Убийственно сексуальные через торрент
    Скачать бесплатно Убийственно сексуальные
    Убийственно сексуальные скачать торрент
    Убийственно сексуальные смотреть онлайн
    Cкачать фильм Убийственно сексуальные бесплатно
    Убийственно сексуальные скачать торрент в хорошем качестве
    Убийственно сексуальные смотреть онлайн бесплатно в хорошем качестве


    Вы не можете начинать темы
    Вы не можете отвечать на сообщения
    Вы не можете редактировать свои сообщения
    Вы не можете удалять свои сообщения
    Вы не можете голосовать в опросах
    Вы не можете прикреплять файлы к сообщениям
    Вы можете скачивать файлы