Marvel's Avengers Deluxe Edition (супер цена) 159р. Внимание количество ограничено!!!

2 сезон

iTunes

iTunes

1

iTunes

iTunes

iTunes

WEBRip

iTunes

30
pack

Новость дня

ВАЖНО

!!Акция!!

Alien_RageХит недели

RePack

Horizon Zero Dawn

ИГРА 18+

pack

RePack

jed

!!Акция!!

Alien_Rage

RePack

fifa19

RePack

Assassins Creed: Odyssey

RePack

NEED FOR SPEED™ PAYBACK

4 сезон

9 сезон

Бесстыжие 9 сезон

Все сериалы

все сериалы на PB.wtf

RePack

FAR CRY 5
  

Армянская резня / Armenian Haunting (Арт Арутян) [2018, Ужасы, драма, детектив, WEB-DL 720p] MVO ["Синема УС"] pb.wtf

Армянская резня через торрент pb.wtf

Размер: 2.61 GB | Добавлен: 2 года 2 мес. назад | Торрент скачан:11 раз
Скачать  

05-07-2018 16:33 Армянская резня Скачать торрент  

Армянская резня / Armenian HauntingГод выпуска: 2018
Страна: США
Жанр: Ужасы, драма, детектив
Продолжительность: 01:20:07
Перевод: Любительский (многоголосый) | "Синема УС"
Субтитры: отсутствуют

Режиссер: Арт Арутян

rating

В ролях:

Ване Ассадуриан, Джей Дерсаджан, Кайл Дарлинг, Крис Грин, Тамара Григорян, Эндрю ДеВитре, Анила Куреши, Пол Марисканиш, Мона Аркин, Тениша Кэмпбелл

Описание:

Армяно-американская журналистка по воле обстоятельств становится охотником за привидениями. Она исследует внезапные смерти в своей семье и их связь с паранормальной тайной.

Качество: WEB-DL 720p
Формат: MKV

Видео: h.264, 4 267 kb/s, 1280x720
Аудио#1: Русский, (AC3, 2 ch, 384 Кбит/с)
скриншот  скриншот  скриншот  

Общее
Уникальный идентификатор : 216918717556220264019766063193959611038 (0xA331067E40A379F5AB8202BD04E2BA9E)
Полное имя : D:\Armenian.Haunting.2018.P.WEB-DL.72Op_KOSHARA.mkv
Формат : Matroska
Версия формата : Version 2
Размер файла : 2,61 Гбайт
Продолжительность : 1 ч. 20 м.
Режим общего битрейта : Переменный
Общий поток : 4653 Кбит/сек
Дата кодирования : UTC 2018-07-05 07:12:47
Программа кодирования : mkvmerge v8.3.0 ('Over the Horizon') 64bit
Библиотека кодирования : libebml v1.3.1 + libmatroska v1.4.2

Видео
Идентификатор : 1
Формат : AVC
Формат/Информация : Advanced Video Codec
Профиль формата : High@L4.1
Параметр CABAC формата : Да
Параметр RefFrames формата : 4 кадра
Идентификатор кодека : V_MPEG4/ISO/AVC
Продолжительность : 1 ч. 20 м.
Вид битрейта : Переменный
Битрейт : 4267 Кбит/сек
Максимальный битрейт : 5000 Кбит/сек
Ширина : 1280 пикселей
Высота : 720 пикселей
Соотношение сторон : 16:9
Режим частоты кадров : Постоянный
Частота кадров : 23,976 (24000/1001) кадра/сек
Стандарт вещания : Component
Цветовое пространство : YUV
Субдискретизация насыщенности : 4:2:0
Битовая глубина : 8 бит
Тип развёртки : Прогрессивная
Бит/(Пиксели*Кадры) : 0.189
Размер потока : 2,34 Гбайт (90%)
Default : Да
Forced : Нет
Цветовой диапазон : Limited
Основные цвета : BT.709
Характеристики трансфера : BT.709
Коэффициенты матрицы : BT.709

Аудио
Идентификатор : 2
Формат : AC-3
Формат/Информация : Audio Coding 3
Расширение режима : CM (complete main)
Параметр Endianness формата : Big
Идентификатор кодека : A_AC3
Продолжительность : 1 ч. 20 м.
Вид битрейта : Постоянный
Битрейт : 384 Кбит/сек
Каналы : 2 канала
Расположение каналов : Front: L R
Частота : 48,0 КГц
Частота кадров : 31,250 кадров/сек (1536 spf)
Метод сжатия : С потерями
Размер потока : 220 Мбайт (8%)
Default : Да
Forced : Нет

pb.wtf



Скачать Армянская резня через торрент https://img11.lostpic.net/2018/07/05/b9135e4bc44321a5877a58ff0259d642.jpg Скачать фильм Армянская резня через торрент бесплантно в хорошем качестве Описание: Армяно-американская журналистка по воле обстоятельств становится охотником за привидениями. Она исследует внезапные смерти в ... 7.8 10 4
Торрент: Зарегистрирован [2018-07-05 16:33] · скачан: 11 раз
Статус: T временная
Размер: 2.61 GB
Как cкачать? Как скачать Армянская резня через торрент | qTorrent

% Раздел Тема Автор DL S | L
T Фильмы (мультфильмы) cо спонсором показа (Новинки AVI/MKV) [ 1.37 GB ] Армянская резня / Armenian Haunting [2018 WEB-DLRip] MVO ["Синема УС"] bober100 Скачать
1 | 0

28-11-2019 20:33  

Отключить всю рекламу на сайте

06-07-2018 02:51 Армянская резня Скачать торрент  

pb.wtf



07-07-2018 07:12 Армянская резня Скачать торрент  

шампуромpb.wtf



    Дорогой пользователь! Огромная просьба, поблагодарите релизера, оцените раздачу и оставьте свои комментарий, если Вы скачали Армянская резня через торрент бесплатно! Внесите свою лепту в развитие PiratBit!
    Комментировать посты могут только пользователи прошедшие не сложную регистрацию
    Показать сообщения:    

    Армянская резня через торрент
    Скачать бесплатно Армянская резня
    Армянская резня скачать торрент
    Армянская резня смотреть онлайн
    Cкачать фильм Армянская резня бесплатно
    Армянская резня скачать торрент в хорошем качестве
    Армянская резня смотреть онлайн бесплатно в хорошем качестве


    Вы не можете начинать темы
    Вы не можете отвечать на сообщения
    Вы не можете редактировать свои сообщения
    Вы не можете удалять свои сообщения
    Вы не можете голосовать в опросах
    Вы не можете прикреплять файлы к сообщениям
    Вы можете скачивать файлы